Заходят многие - остаются лучшие!
Здравствуйте Гость ( Вход | Регистрация ) Выслать повторно письмо для активации
Вход
Ваше имя Пароль Забыли пароль?
Запомнить Вас?
Войти скрытым?



Новые сообщения раздела  

 

 Спасите утопающего (1967) TVRip, Старое советское кино
bornik
  №1 Отправлено: 27.10.2016 - 06:26


Воспоминания - это богатства старости.

Группа: Модераторы
Регистрация: 18.08.2008
Сообщений: 844
Обитает:
Последний раз был:
вчера в 03:22




Спасите утопающего (1967)



Предыдущая раздача 11.06.2008 г.
Предыдущая раздача 15.09.2009 г.

«Спасите утопающего» - советская чёрно-белая комедия 1967 года режиссёра Павла Арсенова, выпущенная киностудией им. М. Горького.

Год выпуска: 1967
Жанр: Детский, комедия, приключения
Выпущено: СССР, Киностудия им. М. Горького
Премьера (СССР): июнь 1968 года

Режиссёр: Павел Арсенов

В ролях:
Андрей Ушаков … Андрей Васильков
Лёня Карасев … Серёжа - Гулька
Егор Дьяков … Егор Подушкин
Аня Ратникова … девочка
Светлана Харитонова … Светлана Николаевна, редактор
Валерий Носик … Гоша Русалкин, спасатель, комсомолец
Георгий Вицин … майор милиции / старик в панамке, сосед, участник хора
Алексей Смирнов … Марченко, милиционер, играет на тубе
Анатолий Столбов … режиссёр на радио, сосед, участник хора
Екатерина Васильева … соседка, участница хора
Татьяна Гаврилова … мать Андрея
Зоя Толбузина … соседка, участница хора
Клавдия Козлёнкова … соседка, участница хора
Вера Петрова … официантка
Анна Строганова … эпизод
Галина Фролова … соседка
А. Алексеев … эпизод
Игорь Безяев … сосед, участник хора
В. Бакатин … клоун-пловец
Валентин Брылеев … отец Андрея
Михаил Державин … Квадрачек, иностранный турист с видеокамерой
Александр Ширвиндт … экскурсовод
Владимир Климентьев … сосед, участник хора
Виктор Кулаков … сосед, участник хора
Б. Кулинич … эпизод
Яков Ленц … дедушка Андрея
Артур Нищёнкин … сосед, участник хора
Юрий Малиновский … эпизод
В. Погожев … эпизод
Рудольф Панков … сосед, участник хора

ВОКАЛ

Олег Ефремов … - вокал + читает текст в прологе и эпилоге

Сценарист: Авенир Зак, Исай Кузнецов, Вадим Коростылёв
Оператор: Граир Гарибян
Художники: Галина Анфилова, Анатолий Анфилов
Композитор: Микаэл Таривердиев
Текст песен: Вадим Коростылев

Описание: Пионер Андрей Васильков и его друг Гулька, воодушевленные лозунгом «ни одной жертвы стихии водной, спасти человека наш долг благородный», разыгрывают несчастный случай на воде перед группой иностранных туристов. Свидетелем этого случайно становится юный корреспондент Егор Подушкин, который с большим энтузиазмом начинает раскручивать эту ситуацию. И вот уже портреты «героя» висят по всему городу, его ждут в трудовых коллективах и на радио, про него даже сняли фильм и теперь, когда друзья решили дать задний ход, выяснилось, что это очень непросто. Ведь через пару дней в городе водный праздник, уже «выписана» медаль «За спасение утопающих» и торжественное награждение должно состояться при любой «погоде»...











General
Complete name : C:\Cinema\Спасите утопающего (1967) TVRip.avi
Format : AVI
Format/Info : Audio Video Interleave
File size : 1.11 GiB
Duration : 1h 5mn
Overall bit rate : 2 404 Kbps
Writing application : VirtualDubMod 1.5.10.2 (build 2540/release)
Writing library : VirtualDubMod build 2540/release

Video
ID : 0
Format : MPEG-4 Visual
Format profile : Advanced Simple@L5
Format settings, BVOP : 2
Format settings, QPel : No
Format settings, GMC : No warppoints
Format settings, Matrix : Default (H.263)
Muxing mode : Packed bitstream
Codec ID : XVID
Codec ID/Hint : XviD
Duration : 1h 5mn
Bit rate : 2 203 Kbps
Width : 720 pixels
Height : 336 pixels
Display aspect ratio : 2.2:1
Frame rate : 25.000 fps
Color space : YUV
Chroma subsampling : 4:2:0
Bit depth : 8 bits
Scan type : Progressive
Compression mode : Lossy
Bits/(Pixel*Frame) : 0.364
Stream size : 1.01 GiB (92%)
Writing library : XviD 65

Audio
ID : 1
Format : MPEG Audio
Format version : Version 1
Format profile : Layer 3
Mode : Joint stereo
Mode extension : MS Stereo
Codec ID : 55
Codec ID/Hint : MP3
Duration : 1h 5mn
Bit rate mode : Constant
Bit rate : 192 Kbps
Channel(s) : 2 channels
Sampling rate : 48.0 KHz
Compression mode : Lossy
Stream size : 90.5 MiB (8%)
Alignment : Aligned on interleaves
Interleave, duration : 40 ms (1.00 video frame)
Interleave, preload duration : 504 ms
Writing library : LAME3.98r
Encoding settings : -m j -V 4 -q 3 -lowpass 18.6 -b 192

=================================

Исходником послужил релиз DVB от Cheef mate и его коллеги TarasBilbo, взятый с Рутрекера, за что им БОЛЬШОЕ СПАСИБО!



Архивы созданы RAR-архиватором с добавлением 3% на восстановление и снабжены sfv-проверочником.
Просьба к первому скачавшему отписаться о сохранности архивов на источнике раздачи.

Раздача рассчитана на месяц.

ПРИЯТНОГО ВСЕМ ПРОСМОТРА !!!


Другое участие: TarasBilbo – предоставление исходной записи
Другое участие: Chiefmate – предоставление исходной записи
Перезаливает для архива: медикус




Это сообщение отредактировал медикус - 27.10.2016 - 23:13


--------------------
Безоблачная старость – это миф,
Поскольку наша память – ширь морская,
И к ночи начинается прилив,
Со дна обломки прошлого таская.
Игорь Губерман

Скрыть подпись


kyo
№2 Отправлено: 27.10.2016 - 08:50


Живёт здесь

Группа: Потребители
Регистрация: 21.07.2007
Сообщений: 1670
Обитает:
Последний раз был:
вчера в 19:47




Архивы в порядке, спасибо !
Top
bornik
№3 Отправлено: 27.10.2016 - 10:11


Воспоминания - это богатства старости.

Группа: Модераторы
Регистрация: 18.08.2008
Сообщений: 844
Обитает:
Последний раз был:
вчера в 03:22




Цитата
( kyo @ 27.10.2016 - 08:50)
Архивы в порядке, спасибо !

И Вам, kyo, спасибо за добрую весть. happy_fly.gif


--------------------
Безоблачная старость – это миф,
Поскольку наша память – ширь морская,
И к ночи начинается прилив,
Со дна обломки прошлого таская.
Игорь Губерман

Скрыть подпись
Top
bornik
№4 Отправлено: 11.01.2017 - 19:44


Воспоминания - это богатства старости.

Группа: Модераторы
Регистрация: 18.08.2008
Сообщений: 844
Обитает:
Последний раз был:
вчера в 03:22




Всем спасибо.
Очередь закрыта. Если есть желающие - пишите в ПМ. wink2.gif


--------------------
Безоблачная старость – это миф,
Поскольку наша память – ширь морская,
И к ночи начинается прилив,
Со дна обломки прошлого таская.
Игорь Губерман

Скрыть подпись
Top
1 человек просматривает эту тему (1 гость)
« Предыдущая тема | Детский киносеанс | Следующая тема »


 



[Script Execution time: 0,0508]   [23 queries used]   [GZIP enabled]