Заходят многие - остаются лучшие!
Здравствуйте Гость ( Вход | Регистрация ) Выслать повторно письмо для активации
Вход
Ваше имя Пароль Забыли пароль?
Запомнить Вас?
Войти скрытым?



 Правила раздела Новые сообщения раздела  


 

 Мы из Кронштадта (1936) [Оригинальная версия] , Историко-революционный;Реж.-Е.Дзиган;Роли-Г.Бушуев,В.Зайчиков,О.Жаков
SanSan48
  №1 Отправлено: 31.01.2018 - 20:20


"Спартак" - ЧЕМПИОН!!!

Группа: Пользователи
Регистрация: 28.12.2009
Сообщений: 1929
Обитает:
Последний раз был:
вчера в 19:05




Мы из Кронштадта (1936) [Оригинальная версия]



Предыдущие раздачи:
09.04.2016 (DVDrip) (восстановленная версия - 01:25:23)
04.03.2007 (ТVrip) (восстановленная версия - 01:25:41)
17.03.2007 (ТVrip) (Архив) (восстановленная версия - 01:25:41)

Жанр: Военный, историко-революционный
Выпущено: СССР, Мосфильм
Год выпуска: 1936
Премьера (СССР): 20 марта 1936
Премьера (мир): 1 мая 1936 (США), 7 сентября 1936 (Швеция)
Сценарист: Всеволод Вишневский
Оператор: Наум Наумов-Страж
Композитор (музыка и звуковое оформление): Николай Крюков
Художники: Владимир Егоров

Режиссёр: Ефим Дзиган

В ролях:
Василий Зайчиков … Василий Федорович Мартынов, комиссар кронштадтского экспедиционного морского отряда
Григорий Бушуев … Артем Балашов, военный балтийский моряк
Николай Ивакин … Василий Бурмистров, красноармеец-пехотинец
Олег Жаков … Ян Драудин, командир петроградского стрелкового полка
Раиса Есипова … Екатерина Тийман, жена командира
Пётр Кириллов … Валентин Беспрозванный, матрос-гитарист
Эрнст Гунн … Антон Карабаш, военмор
Михаил Гуриненко … юнга Миша Гуриненко
Фёдор Селезнёв … солдат белой армии, "мы пскопские"
Пётр Соболевский … фон Виттен, поручик дивизии светлейшего князя Ливена
Николай Головин
Вадим Гусев … юнга (нет в титрах)
Иван Гузиков … полицейский (нет в титрах)
Владимир Весновский … фельдфебель (нет в титрах)

Описание: По одноименной пьесе Всеволода Вишневского.
В фильме описываются события октября 1919 года. Белогвардейцы из формирований Юденича осаждают Петроград. На помощь пехотинцам, обороняющим город, в Кронштадте организуется экспедиционный отряд матросов. Группа моряков из этого отряда попадает в плен и гибнет. Спастись удается только одному матросу Артёму Балашову. В Кронштадте ему предлагают возглавить новый десант моряков.
В фильме впервые прозвучала фраза «Нас мало, но мы в тельняшках!», ставшая позднее известной поговоркой. Также пользовались в народе популярностью фразы: «Мы пскопские», «А ну, кто ещё хочет в Петроград?».

Дополнительная информация: Релиз:

Автор рипа: pmv

Большое спасибо за:
- Исходник DVB (запись с ТК «Россия-Культура») – xfiles

* В данной раздаче представлена оригинальная версия фильма на 3 с половиной минуты продолжительнее, чем в предыдущих раздачах, в которых даётся «восстановленная» в 1968 году версия с переозвученным звуком, изменённым текстом и без некоторых фрагментов, вырезанных при восстановлении.

IMDb = 6,9/10 (120) - http://www.imdb.com/title/tt0028012/
Кинопоиск = 6.779 (332) - https://www.kinopoisk.ru/film/my-iz-kronshtadta-1936-46753/

Раздаётся 2 рипа фильма в разном качестве: SATrip и DVDrip.

Первый рип с более лучшим качеством видео, но несколько подрезан кадр снизу, а также имеется около 5 фрагментов с помехами в записи исходника и звук не лучшего качества. В DVDrip изображение менее чёткое, затемнённое, подрезано сверху, но звук более естественный. В качестве сравнения можно посмотреть сэмплы и скрины этих двух рипов.

Параметры файла:
Название: Мы из Кронштадта (1936) SATrip.avi
Качество видео: SATrip
Формат видео: AVI
Размер: 1400.68 Mb ( 1 468 724 218 bytes )
Продолжительность: 01:29:02.359 (133559 frames)
Видео: 720x528 (1.36:1), 25 fps, XviD build 73 ~1997 kbps avg, 0.21 bit/pixel
Аудио: 48 kHz, AC3 Dolby Digital, 2/0 (L,R) ch, ~192.00 kbps avg



General
Complete name : D:\torrents\Мы из Кронштадта (1936) SATrip.avi
Format : AVI
Format/Info : Audio Video Interleave
File size : 1.37 GiB
Duration : 1 h 29 min
Overall bit rate : 2 199 kb/s
Writing library : VirtualDub build 35576/release

Video
ID : 0
Format : MPEG-4 Visual
Format profile : Advanced Simple@L5
Format settings, BVOP : 2
Format settings, QPel : No
Format settings, GMC : No warppoints
Format settings, Matrix : Default (H.263)
Codec ID : XVID
Codec ID/Hint : XviD
Duration : 1 h 29 min
Bit rate : 1 998 kb/s
Width : 720 pixels
Height : 528 pixels
Display aspect ratio : 4:3
Frame rate : 25.000 FPS
Color space : YUV
Chroma subsampling : 4:2:0
Bit depth : 8 bits
Scan type : Progressive
Compression mode : Lossy
Bits/(Pixel*Frame) : 0.210
Stream size : 1.24 GiB (91%)
Writing library : XviD 73

Audio
ID : 1
Format : AC-3
Format/Info : Audio Coding 3
Mode extension : CM (complete main)
Format settings, Endianness : Big
Codec ID : 2000
Duration : 1 h 29 min
Bit rate mode : Constant
Bit rate : 192 kb/s
Channel(s) : 2 channels
Channel positions : Front: L R
Sampling rate : 48.0 kHz
Frame rate : 31.250 FPS (1536 spf)
Bit depth : 16 bits
Compression mode : Lossy
Stream size : 122 MiB (9%)
Alignment : Aligned on interleaves
Interleave, duration : 40 ms (1.00 video frame)
Interleave, preload duration : 512 ms








В ДАННОЙ РАЗДАЧЕ ПРЕДСТАВЛЕН ТАКЖЕ DVDrip. ИНФОРМАЦИЮ ОБ ЭТОМ РИПЕ СМОТРИТЕ ПОД СПОЙЛЕРОМ.


Параметры файла:
Название: Мы из Кронштадта (1936) DVDrip.avi
Качество видео: DVDrip
Формат видео: AVI
Размер: 1085.10 Mb ( 1 137 807 542 bytes )
Продолжительность: 01:28:57.879 (133447 frames)
Видео: 720x544 (1.32:1), 25 fps, XviD MPEG-4 ~1599 kbps avg, 0.16 bit/pixel
Аудио: 48 kHz, MPEG Layer 3, 1 ch, ~96.00 kbps avg



General
Complete name : D:\ torrents\Мы из Кронштадта (1936) DVDrip.avi
Format : AVI
Format/Info : Audio Video Interleave
File size : 1.06 GiB
Duration : 1 h 28 min
Overall bit rate : 1 705 kb/s
Writing library : VirtualDub build 35512/release

Video
ID : 0
Format : MPEG-4 Visual
Format profile : Advanced Simple@L5
Format settings, BVOP : 2
Format settings, QPel : No
Format settings, GMC : No warppoints
Format settings, Matrix : Default (H.263)
Muxing mode : Packed bitstream
Codec ID : XVID
Codec ID/Hint : XviD
Duration : 1 h 28 min
Bit rate : 1 600 kb/s
Width : 720 pixels
Height : 544 pixels
Display aspect ratio : 4:3
Frame rate : 25.000 FPS
Color space : YUV
Chroma subsampling : 4:2:0
Bit depth : 8 bits
Scan type : Progressive
Compression mode : Lossy
Bits/(Pixel*Frame) : 0.163
Stream size : 1 018 MiB (94%)
Writing library : XviD 1.2.1 (UTC 2008-12-04)

Audio
ID : 1
Format : MPEG Audio
Format version : Version 1
Format profile : Layer 3
Codec ID : 55
Codec ID/Hint : MP3
Duration : 1 h 28 min
Bit rate mode : Constant
Bit rate : 96.0 kb/s
Channel(s) : 1 channel
Sampling rate : 48.0 kHz
Compression mode : Lossy
Delay relative to video : 100 ms
Stream size : 61.1 MiB (6%)
Alignment : Split accross interleaves
Interleave, duration : 40 ms (1.00 video frame)
Interleave, preload duration : 500 ms









МОИ РАЗДАЧИ НА ФЕНИКСе: ЗДЕСЬ




Это сообщение отредактировал SanSan48 - 4.02.2018 - 10:42


--------------------
"Спартак" - ЧЕМПИОН!!!

Скрыть подпись


kyo
№2 Отправлено: 31.01.2018 - 21:25


Живёт здесь

Группа: Потребители
Регистрация: 21.07.2007
Сообщений: 1990
Обитает:
Последний раз был:
cегодня в 03:09




Архивы двд-рипа в порядке, спасибо !
Top
SanSan48
№3 Отправлено: 1.02.2018 - 07:17


"Спартак" - ЧЕМПИОН!!!

Группа: Пользователи
Регистрация: 28.12.2009
Сообщений: 1929
Обитает:
Последний раз был:
вчера в 19:05




Цитата
( kyo @ 31.01.2018 - 21:25)
Архивы двд-рипа в порядке, спасибо !

kyo, Благодарю за сообщение!


--------------------
"Спартак" - ЧЕМПИОН!!!

Скрыть подпись
Top
медикус
№4 Отправлено: 3.02.2018 - 00:18


Живёт здесь

Группа: Модераторы
Регистрация: 22.07.2008
Сообщений: 9787
Обитает:
Последний раз был:
вчера в 23:00




Цитата
kyo @ 1.02.2018 - 00:25
Архивы двд-рипа в порядке, спасибо !

SATRip тоже в порядке. Спасибо!


--------------------
"Тихо шифером шурша,
Крыша едет не спеша..."
Не помню, кто написал, но дома с этим согласны yes.gif

ПРОЕКТ: В музей - без поводка

Скрыть подпись
Top
1 человек просматривает эту тему (1 гость)
« Предыдущая тема | Отечественное кино | Следующая тема »


 



[Script Execution time: 0,0349]   [23 queries used]   [GZIP enabled]