Заходят многие - остаются лучшие!
Здравствуйте Гость ( Вход | Регистрация ) Выслать повторно письмо для активации
Вход
Ваше имя Пароль Забыли пароль?
Запомнить Вас?
Войти скрытым?



Новые сообщения раздела  

 

 Самый сильный (1973), Старое советское кино, экранизация
bornik
  №1 Отправлено: 7.02.2016 - 16:20


Воспоминания - это богатства старости.

Группа: Модераторы
Регистрация: 18.08.2008
Сообщений: 1036
Обитает:
Последний раз был:
13.10.2019 - 06:58




Самый сильный



«Самый сильный» - фильм-притча по мотивам народных сказок о судьбе доброго молодца, первого богатыря - "Самого Сильного".

Предыдущая раздача 18.02.2008 г.

Жанр: Сказка, детский
Выпущено: СССР, Свердловская киностудия
Год выпуска: 1973
Премьера (СССР): 21 января 1974 года

Режиссёр: Олег Николаевский

В ролях:
Николай Мерзликин … Батыр
Евгений Весник … халиф / визирь
Татьяна Клюева … Гюльчек
Владимир Довейко … Див
Капитолина Ламочкина … бабка
Павел Федосеев … дед
Ирина Кмит … царская дочь
Адольф Ильин … Мусабай
Юрий Мельницкий … скороход
Сергей Николаев … ветродуй
Евгений Поликанин … слухач
Аркадий Пышняк … стрелок
Евгений Бугров … шут
Константин Максимов … кузнец
Даниил Нетребин … путник
Владимир Дубровский … глашатай
Валентин Макаров … эпизод
З. Невоструева … эпизод
С. Никонов … эпизод
Виктор Саитов … эпизод

Сценарист: Ярослав Филиппов
Оператор: Василий Кирбижеков
Композитор: Евгений Стихин
Художник: Владислав Расторгуев

Описание: В небывалом Царстве, в невиданном Государстве жили-были старик со старухой. Долго прожили, а детей не нажили. Однажды слепил дед из теста куколку, положил на печь, а из куклы вдруг ребенок родился, да не простой! Рос не по дням, а по часам, пил и ел за семерых! Вымахал в здоровенного, очень сильного и очень дерзкого парня. Одно огорчало стариков — не было у их сына сердца, из теста сделан все-таки. Как-то встретил богатырь соседскую девушку-красавицу, из озорства полюбезничал с ней, а она уж подумала: влюбился, мол. Да и сама полюбила богатыря. Не знала красавица тогда еще, что нет у парня сердца... А тому скучно стало дома сидеть со стариками, и отправился он, как говорится, мир поглядеть, да себя показать...







Исходником послужил релиз DVD5 от ejen4, взятый с Рутрекера, за что ему БОЛЬШОЕ СПАСИБО!



Архивы созданы RAR-архиватором с добавлением 3% на восстановление и снабжены sfv-проверочником.
Просьба к первому скачавшему отписаться о сохранности архивов на источнике раздачи.

Раздача рассчитана на месяц.

ПРИЯТНОГО ВСЕМ ПРОСМОТРА !!!



General
Complete name : C:\Cinema\Самый сильный (1973) DVDRip.avi
Format : AVI
Format/Info : Audio Video Interleave
File size : 1.32 GiB
Duration : 1h 18mn
Overall bit rate : 2 404 Kbps
Writing application : FairUse Wizard - http://fairusewizard.com
Writing library : VirtualDub build 35491/release

Video
ID : 0
Format : MPEG-4 Visual
Format profile : Advanced Simple@L5
Format settings, BVOP : 2
Format settings, QPel : No
Format settings, GMC : No warppoints
Format settings, Matrix : Default (H.263)
Muxing mode : Packed bitstream
Codec ID : XVID
Codec ID/Hint : XviD
Duration : 1h 18mn
Bit rate : 2 203 Kbps
Width : 720 pixels
Height : 544 pixels
Display aspect ratio : 4:3
Frame rate : 25.000 fps
Color space : YUV
Chroma subsampling : 4:2:0
Bit depth : 8 bits
Scan type : Progressive
Compression mode : Lossy
Bits/(Pixel*Frame) : 0.225
Stream size : 1.21 GiB (92%)
Writing library : XviD 65

Audio
ID : 1
Format : AC-3
Format/Info : Audio Coding 3
Mode extension : CM (complete main)
Codec ID : 2000
Duration : 1h 18mn
Bit rate mode : Constant
Bit rate : 192 Kbps
Channel(s) : 2 channels
Channel positions : Front: L R
Sampling rate : 48.0 KHz
Bit depth : 16 bits
Compression mode : Lossy
Stream size : 108 MiB (8%)
Alignment : Split accross interleaves
Interleave, duration : 40 ms (1.00 video frame)
Interleave, preload duration : 500 ms


Другое участие: ejen4 – предоставление исходной записи
Фильм залит в архив.




Это сообщение отредактировал медикус - 8.02.2016 - 14:17


--------------------
Безоблачная старость – это миф,
Поскольку наша память – ширь морская,
И к ночи начинается прилив,
Со дна обломки прошлого таская.
Игорь Губерман

Скрыть подпись


Alevtina
№2 Отправлено: 7.02.2016 - 17:09


Время камни собирать...

Группа: Аксакалы
Регистрация: 12.02.2009
Сообщений: 5737
Обитает:
Последний раз был:
вчера в 19:44




bornik, все хорошо! спасибо большое! zdarov1.gif


--------------------

Прохожие, купите Доброту!
Лишь за улыбку! Разве ж это много!
Исполните заветную мечту…
И хоть одну из Заповедей Бога!
Снимите маски «гордых» и «крутых»
Купите, хоть немножечко, Терпенья.
И ощутите сердцем, хоть на миг,
Всю прелесть и восторг благодаренья!
Сегодня, АКЦИЯ на Совесть и Любовь!
Притормозите «хаммер» свой, иль «буммер»!
Купите! И волнуйте свою кровь!
От этого ещё никто не умер!


Скрыть подпись
Top
bornik
№3 Отправлено: 7.02.2016 - 17:37


Воспоминания - это богатства старости.

Группа: Модераторы
Регистрация: 18.08.2008
Сообщений: 1036
Обитает:
Последний раз был:
13.10.2019 - 06:58




Цитата
( Alevtina @ 7.02.2016 - 17:09)
bornik, все хорошо! спасибо большое! zdarov1.gif

А Вам, Alevtina, спасибо за добрую весть. happy_fly.gif


--------------------
Безоблачная старость – это миф,
Поскольку наша память – ширь морская,
И к ночи начинается прилив,
Со дна обломки прошлого таская.
Игорь Губерман

Скрыть подпись
Top
bornik
№4 Отправлено: 8.03.2016 - 16:16


Воспоминания - это богатства старости.

Группа: Модераторы
Регистрация: 18.08.2008
Сообщений: 1036
Обитает:
Последний раз был:
13.10.2019 - 06:58




Всем спасибо.
Очередь закрыта. Если есть желающие - пишите в ПМ. wink2.gif


--------------------
Безоблачная старость – это миф,
Поскольку наша память – ширь морская,
И к ночи начинается прилив,
Со дна обломки прошлого таская.
Игорь Губерман

Скрыть подпись
Top
Rosenкранц
№5 Отправлено: 8.03.2016 - 17:15


любящий сердцем

Группа: Форумчане
Регистрация: 12.03.2014
Сообщений: 8223
Обитает:
Последний раз был:
15.10.2019 - 18:27




Песенка про сикомбрического очень понравилась.
Спасибо родной Свердловской киностудии.

Вновь в одной сказке сыграли Татьяна Клюева (Гульчек) и Сергей Николаев (Ветродуй)
До этого они играли вместе в сказке "Варвара-Краса - длинная коса".
Клюева - Варвара , Николай - Андрей , царский сын.


Это сообщение отредактировал Rosenкранц - 8.03.2016 - 17:26

Присоединённое изображение (Нажмите для увеличения)
Присоединённое изображение


--------------------
Темной ночью и чуть свет ЛЮДИ явятся на СВЕТ

Скрыть подпись
Top
1 человек просматривает эту тему (1 гость)
« Предыдущая тема | Детский киносеанс | Следующая тема »


 



[Script Execution time: 0,0538]   [24 queries used]   [GZIP enabled]