Заходят многие - остаются лучшие!
Здравствуйте Гость ( Вход | Регистрация ) Выслать повторно письмо для активации
Вход
Ваше имя Пароль Забыли пароль?
Запомнить Вас?
Войти скрытым?



Новые сообщения раздела  

 

 Библейский сюжет. Ингрид Бергман, Роберто Росселлини Юродство проповеди (2017), Авторская программа Дмитрия Менделеева
Alevtina
  №1 Отправлено: 8.12.2017 - 16:44


Время камни собирать...

Группа: Аксакалы
Регистрация: 12.02.2009
Сообщений: 5736
Обитает:
Последний раз был:
cегодня в 09:46




Библейский сюжет. Ингрид Бергман, Роберто Росселлини "Юродство проповеди"



В рамках проекта -

Год выпуска: 2017

Страна: Россия

Режиссер: Ольга Жукова

Студия: ООО Студия "Неофит"

Автор и ведущий: Дмитрий Менделеев


Обращение великих художников к Библии никогда не заканчивалось только иллюстрацией того или иного сюжета Вечной Книги. Оно всегда предполагало личное осмысление. Художник выбирал библейскую историю, чтобы рассказать о себе, о своем времени, чтобы глубже постичь смысл происходящего.
Язык образов Святого Писания был универсален и понятен для всех. Но теперь для нас этот язык наполовину забыт. Мы уже не можем так ясно, с листа, читать всё, что говорили в своих произведениях художники, поэты, композиторы и писатели прошлого. Мы более опираемся на чувственное восприятие, которое все же является только частью замысла, его внешней стороной. В программе "Библейский сюжет" делается попытка соединить "прекрасного разрозненные части", по-другому взглянуть на всемирно известные произведения искусства, рассказать о судьбе их создателей.


Описание:
"Что бы мы сделали, если бы святой Франциск пришел сегодня? То же самое. Осмеяли бы его. Я хочу рассказать историю о том, как бы мы повели себя в 1951 году, если б вдруг женщина бросила богатого мужа, свою богатую жизнь, и пошла бы на улицу - помогать бедным", - Роберто Росселлини.
Он как раз только что закончил снимать фильм о святом Франциске и вот решил сделать такой необычный сиквел с участием своей гениальной супруги, Ингрид. Эту вторую часть он назвал "Европа 51", эпиграфом к ней служат слова апостола Павла, продолжающие ту строчку, которую он выбрал для истории о Франциске: "Когда мир не познал Бога в премудрости Божией, благоизволил Бог юродством проповеди спасти верующих".


За постер спасибо bornik!


Media-info:


Format : AVI
Format/Info : Audio Video Interleave
File size : 399 MiB
Duration : 26mn 11s
Overall bit rate : 2 130 Kbps
Writing application : VirtualDubMod 1.5.10.2 (build 2540/release)
Writing library : VirtualDubMod build 2540/release

Video
ID : 0
Format : MPEG-4 Visual
Format profile : Advanced Simple@L5
Format settings, BVOP : 2
Format settings, QPel : No
Format settings, GMC : No warppoints
Format settings, Matrix : Default (H.263)
Muxing mode : Packed bitstream
Codec ID : XVID
Codec ID/Hint : XviD
Duration : 26mn 11s
Bit rate : 1 992 Kbps
Width : 720 pixels
Height : 400 pixels
Display aspect ratio : 16:9
Frame rate : 25.000 fps
Color space : YUV
Chroma subsampling : 4:2:0
Bit depth : 8 bits
Scan type : Progressive
Compression mode : Lossy
Bits/(Pixel*Frame) : 0.277
Stream size : 373 MiB (94%)
Writing library : XviD 65

Audio
ID : 1
Format : MPEG Audio
Format version : Version 1
Format profile : Layer 3
Codec ID : 55
Codec ID/Hint : MP3
Duration : 26mn 11s
Bit rate mode : Constant
Bit rate : 128 Kbps
Channel(s) : 2 channels
Sampling rate : 48.0 KHz
Compression mode : Lossy
Stream size : 24.0 MiB (6%)
Alignment : Aligned on interleaves
Interleave, duration : 40 ms (1.00 video frame)
Interleave, preload duration : 504 ms
Writing library : LAME3.98r
Encoding settings : -m s -V 4 -q 3 -lowpass 17 -b 128



Скриншоты:








Записались на автоматическое включение в очередь:
baziss, Snara, valbar, vyur, RussianGuy, Marrina, медикус, mosk7, Nadejdaenergia, ILIA, Masjanja, ajlinn, oldfanat, bondsun, mikhailk, medandrey, oster47, Tanjusha, andrusenko, rittaa, medush, rucula

Если вы хотите, чтобы вас автоматически ставили в очередь на следующие выпуски данного цикла, - сообщите об этом в теме последней раздачи.




Это сообщение отредактировал Alevtina - 14.12.2017 - 16:49


--------------------

Прохожие, купите Доброту!
Лишь за улыбку! Разве ж это много!
Исполните заветную мечту…
И хоть одну из Заповедей Бога!
Снимите маски «гордых» и «крутых»
Купите, хоть немножечко, Терпенья.
И ощутите сердцем, хоть на миг,
Всю прелесть и восторг благодаренья!
Сегодня, АКЦИЯ на Совесть и Любовь!
Притормозите «хаммер» свой, иль «буммер»!
Купите! И волнуйте свою кровь!
От этого ещё никто не умер!


Скрыть подпись


RussianGuy
№2 Отправлено: 8.12.2017 - 20:22


Живёт здесь

Группа: Потребители
Регистрация: 12.02.2007
Сообщений: 1387
Обитает:
Последний раз был:
cегодня в 11:28




Архивы в порядке. Спасибо
Top
Alevtina
№3 Отправлено: 8.12.2017 - 20:49


Время камни собирать...

Группа: Аксакалы
Регистрация: 12.02.2009
Сообщений: 5736
Обитает:
Последний раз был:
cегодня в 09:46




RussianGuy, благодарю за весть!


--------------------

Прохожие, купите Доброту!
Лишь за улыбку! Разве ж это много!
Исполните заветную мечту…
И хоть одну из Заповедей Бога!
Снимите маски «гордых» и «крутых»
Купите, хоть немножечко, Терпенья.
И ощутите сердцем, хоть на миг,
Всю прелесть и восторг благодаренья!
Сегодня, АКЦИЯ на Совесть и Любовь!
Притормозите «хаммер» свой, иль «буммер»!
Купите! И волнуйте свою кровь!
От этого ещё никто не умер!


Скрыть подпись
Top
1 человек просматривает эту тему (1 гость)
« Предыдущая тема | Мир и люди искусства | Следующая тема »


 



[Script Execution time: 0,0946]   [23 queries used]   [GZIP enabled]