Заходят многие - остаются лучшие!
Здравствуйте Гость ( Вход | Регистрация ) Выслать повторно письмо для активации
Вход
Ваше имя Пароль Забыли пароль?
Запомнить Вас?
Войти скрытым?



Новые сообщения раздела  

 

 Бобровая плотина / National Geographic. Dam Beavers (2009), National Geographic
bornik
  №1 Отправлено: 19.04.2017 - 20:11


Воспоминания - это богатства старости.

Группа: Модераторы
Регистрация: 18.08.2008
Сообщений: 966
Обитает:
Последний раз был:
cегодня в 02:54




Бобровая плотина / National Geographic. Dam Beavers (2009)



«Бобровая плотина» - плотина, возводимая бобрами на реке или ручье для защиты от хищников и с целью облегчения добычи пищи в зимний период.
Материалами для устройства плотины служат дерево, сучья, листья, трава, ил, грязь, камни и прочие природные материалы.
Склонность бобров к устройству плотин некоторыми учёными рассматривается как аргумент отнесения этих животных к использующим орудия труда.

Название: Бобровая плотина
Оригинальное название: Dam Beavers
Год выпуска: 2009
Жанр: Документальный, природа, фауна, флора
Выпущено: США, National Geographic
Продолжительность: 00:43:00
Субтитры: Русские (мои)

Режиссёр: Джефф Хоган / Jeff Hogan

Программа озвучена студией "АРК•ТВ"
Текст читает: Наталья Казначеева

Описание: Бобровые запруды как магнит притягивают других животных. Прекрасное место, чтобы найти партнера и создать семью, охотится или бороться за выживание. А в центре "инженер", поддерживающий жизнеспособность системы. Строительство плотины - это лишь часть работы...
Станьте очевидцами одного бурного строительного сезона у бобров, который проходит на фоне красивейших гор Гранд-Тетон.








General
Complete name : C:\DVD documental fimls\Бобровая плотина\Бобровая плотина (2009).avi
Format : AVI
Format/Info : Audio Video Interleave
File size : 678 MiB
Duration : 43mn 0s
Overall bit rate : 2 204 Kbps
Writing application : VirtualDubMod 1.5.10.2 (build 2540/release)
Writing library : VirtualDubMod build 2540/release

Video
ID : 0
Format : MPEG-4 Visual
Format profile : Advanced Simple@L5
Format settings, BVOP : 2
Format settings, QPel : No
Format settings, GMC : No warppoints
Format settings, Matrix : Default (H.263)
Muxing mode : Packed bitstream
Codec ID : XVID
Codec ID/Hint : XviD
Duration : 43mn 0s
Bit rate : 2 002 Kbps
Width : 720 pixels
Height : 400 pixels
Display aspect ratio : 16:9
Frame rate : 25.000 fps
Color space : YUV
Chroma subsampling : 4:2:0
Bit depth : 8 bits
Scan type : Progressive
Compression mode : Lossy
Bits/(Pixel*Frame) : 0.278
Stream size : 616 MiB (91%)
Writing library : XviD 65

Audio
ID : 1
Format : MPEG Audio
Format version : Version 1
Format profile : Layer 3
Mode : Joint stereo
Mode extension : MS Stereo
Codec ID : 55
Codec ID/Hint : MP3
Duration : 43mn 0s
Bit rate mode : Constant
Bit rate : 192 Kbps
Channel(s) : 2 channels
Sampling rate : 48.0 KHz
Compression mode : Lossy
Stream size : 59.1 MiB (9%)
Alignment : Aligned on interleaves
Interleave, duration : 40 ms (1.00 video frame)
Interleave, preload duration : 504 ms
Writing library : LAME3.98r
Encoding settings : -m j -V 4 -q 3 -lowpass 18.6 -b 192


=================================

Исходником послужил релиз HDTV, найденный на просторах инета!

Архивы созданы RAR-архиватором с добавлением 3% на восстановление и снабжены sfv-проверочником.
Просьба к первому скачавшему отписаться о сохранности архивов на источнике раздачи.


ПРИЯТНОГО ВСЕМ ПРОСМОТРА !!!




--------------------
Безоблачная старость – это миф,
Поскольку наша память – ширь морская,
И к ночи начинается прилив,
Со дна обломки прошлого таская.
Игорь Губерман

Скрыть подпись


lmilchin
№2 Отправлено: 19.04.2017 - 22:17


Посетитель

Группа: Пользователи
Регистрация: 12.11.2009
Сообщений: 118
Обитает:
Последний раз был:
cегодня в 14:16




Спасибо. Всё открылость без проблем.
Top
bornik
№3 Отправлено: 20.04.2017 - 03:07


Воспоминания - это богатства старости.

Группа: Модераторы
Регистрация: 18.08.2008
Сообщений: 966
Обитает:
Последний раз был:
cегодня в 02:54




Цитата
( lmilchin @ 19.04.2017 - 22:17)
Спасибо. Всё открылость без проблем.

И Вам, lmilchin, спасибо за добрую весть. happy_fly.gif


--------------------
Безоблачная старость – это миф,
Поскольку наша память – ширь морская,
И к ночи начинается прилив,
Со дна обломки прошлого таская.
Игорь Губерман

Скрыть подпись
Top
grival406
№4 Отправлено: 20.04.2017 - 17:17


Старожил

Группа: Потребители
Регистрация: 3.03.2016
Сообщений: 927
Обитает:
Последний раз был:
17.11.2017 - 18:13




Спасибо за изумительные
раздачи о животных планеты!


--------------------
Я знаю только одного тирана, и это тихий голос совести.
Махатма Ганди

Скрыть подпись
Top
bornik
№5 Отправлено: 20.04.2017 - 19:11


Воспоминания - это богатства старости.

Группа: Модераторы
Регистрация: 18.08.2008
Сообщений: 966
Обитает:
Последний раз был:
cегодня в 02:54




Цитата
grival406 @ 20.04.2017 - 17:17
Спасибо за изумительные
раздачи о животных планеты!

Да не за что! Смотрите, grival406, и наслаждайтесь.
Приятного Вам просмотра! wink2.gif


--------------------
Безоблачная старость – это миф,
Поскольку наша память – ширь морская,
И к ночи начинается прилив,
Со дна обломки прошлого таская.
Игорь Губерман

Скрыть подпись
Top
1 человек просматривает эту тему (1 гость)
« Предыдущая тема | Мир вокруг нас | Следующая тема »


 



[Script Execution time: 0,0473]   [23 queries used]   [GZIP enabled]