Заходят многие - остаются лучшие!
Здравствуйте Гость ( Вход | Регистрация ) Выслать повторно письмо для активации
Вход
Ваше имя Пароль Забыли пароль?
Запомнить Вас?
Войти скрытым?



Новые сообщения раздела  

 

 Библейский сюжет. Давид Самойлов. Поклонение пастухов. (2018), Авторская программа Дмитрия Менделеева
Alevtina
  №1 Отправлено: 8.03.2018 - 09:18


Время камни собирать...

Группа: Аксакалы
Регистрация: 12.02.2009
Сообщений: 5687
Обитает:
Последний раз был:
вчера в 20:03




Библейский сюжет. Давид Самойлов. Поклонение пастухов.



В рамках проекта -

Год выпуска: 2018

Страна: Россия

Режиссер: Ольга Жукова

Студия: ООО Студия "Неофит"

Автор и ведущий: Дмитрий Менделеев


Обращение великих художников к Библии никогда не заканчивалось только иллюстрацией того или иного сюжета Вечной Книги. Оно всегда предполагало личное осмысление. Художник выбирал библейскую историю, чтобы рассказать о себе, о своем времени, чтобы глубже постичь смысл происходящего.
Язык образов Святого Писания был универсален и понятен для всех. Но теперь для нас этот язык наполовину забыт. Мы уже не можем так ясно, с листа, читать всё, что говорили в своих произведениях художники, поэты, композиторы и писатели прошлого. Мы более опираемся на чувственное восприятие, которое все же является только частью замысла, его внешней стороной. В программе "Библейский сюжет" делается попытка соединить "прекрасного разрозненные части", по-другому взглянуть на всемирно известные произведения искусства, рассказать о судьбе их создателей.


Описание:

Мария была курчава.
Толстые губы припухли.
Она Дитя качала,
Помешивая угли.
Потрескавшейся, смуглой
Рукой в ночное время
Помешивала угли.
Так было в Вифлееме.
Шли пастухи от стада,
Между собой говорили:
- Зайти, узнать бы надо,
Что там в доме Марии?
Давид Самойлов. "Брейгель (картина").

У Брейгеля нет такой картины, есть "Поклонение волхвов", "Перепись в Вифлееме"... Для тех, кто умеет читать "между строк" Брейгель был своего рода позывным: речь пойдёт о чём-то духовном, о возвращении домой, возвращении блудного сына... в то таинственное, детское, в изначальное, ради чего Слово стало плотью. А восприятие Рождества пастухами было важно для Самойлова потому, что волхвы – иностранцы, а пастухи-то – свои. "Брейгель" Самойлова – это о первой встрече Ветхого и Нового заветов, которая волновала его многие годы...



Media-info:


Complete name : D:\Фильмы\С Феникса\Документальное кино\БС\Поклонение пастухов 2018\B.s.Давид Самойлов. Поклонение пастухов.2018.avi
Format : AVI
Format/Info : Audio Video Interleave
File size : 338 MiB
Duration : 25mn 42s
Overall bit rate : 1 838 Kbps
Writing library : VirtualDub build 35491/release

Video
ID : 0
Format : MPEG-4 Visual
Format settings, BVOP : Yes
Format settings, QPel : No
Format settings, GMC : No warppoints
Format settings, Matrix : Default (H.263)
Muxing mode : Packed bitstream
Codec ID : DX50
Codec ID/Hint : DivX 5
Duration : 25mn 42s
Bit rate : 1 700 Kbps
Width : 720 pixels
Height : 404 pixels
Display aspect ratio : 16:9
Frame rate : 25.000 fps
Color space : YUV
Chroma subsampling : 4:2:0
Bit depth : 8 bits
Scan type : Progressive
Bits/(Pixel*Frame) : 0.234
Stream size : 313 MiB (93%)
Writing library : DivX 6.8.5 (UTC 2009-08-20)

Audio
ID : 1
Format : MPEG Audio
Format version : Version 1
Format profile : Layer 3
Codec ID : 55
Codec ID/Hint : MP3
Duration : 25mn 42s
Bit rate mode : Constant
Bit rate : 128 Kbps
Channel(s) : 1 channel
Sampling rate : 48.0 KHz
Stream size : 23.5 MiB (7%)
Alignment : Split accross interleaves
Interleave, duration : 40 ms (1.00 video frame)
Interleave, preload duration : 500 ms
Writing library : LAME3.90.3


Скриншоты:






Записались на автоматическое включение в очередь:
baziss, Snara, valbar, vyur, RussianGuy, Marrina, медикус, mosk7, Nadejdaenergia, ILIA, Masjanja, ajlinn, oldfanat, bondsun, mikhailk, medandrey, oster47, Tanjusha, andrusenko, rittaa, medush, rucula

Если вы хотите, чтобы вас автоматически ставили в очередь на следующие выпуски данного цикла, - сообщите об этом в теме последней раздачи.




Это сообщение отредактировал Alevtina - 8.03.2018 - 09:26


--------------------

Прохожие, купите Доброту!
Лишь за улыбку! Разве ж это много!
Исполните заветную мечту…
И хоть одну из Заповедей Бога!
Снимите маски «гордых» и «крутых»
Купите, хоть немножечко, Терпенья.
И ощутите сердцем, хоть на миг,
Всю прелесть и восторг благодаренья!
Сегодня, АКЦИЯ на Совесть и Любовь!
Притормозите «хаммер» свой, иль «буммер»!
Купите! И волнуйте свою кровь!
От этого ещё никто не умер!


Скрыть подпись


valbar
№2 Отправлено: 8.03.2018 - 12:20


Живёт здесь

Группа: Потребители
Регистрация: 13.01.2010
Сообщений: 1162
Обитает:
Последний раз был:
10.07.2018 - 12:18




Скачалось без проблем. Большое спасибо!
Top
Alevtina
№3 Отправлено: 8.03.2018 - 14:37


Время камни собирать...

Группа: Аксакалы
Регистрация: 12.02.2009
Сообщений: 5687
Обитает:
Последний раз был:
вчера в 20:03




valbar, и я благодарю за весть!!!


--------------------

Прохожие, купите Доброту!
Лишь за улыбку! Разве ж это много!
Исполните заветную мечту…
И хоть одну из Заповедей Бога!
Снимите маски «гордых» и «крутых»
Купите, хоть немножечко, Терпенья.
И ощутите сердцем, хоть на миг,
Всю прелесть и восторг благодаренья!
Сегодня, АКЦИЯ на Совесть и Любовь!
Притормозите «хаммер» свой, иль «буммер»!
Купите! И волнуйте свою кровь!
От этого ещё никто не умер!


Скрыть подпись
Top
1 человек просматривает эту тему (1 гость)
« Предыдущая тема | Мир и люди искусства | Следующая тема »


 



[Script Execution time: 0,0260]   [22 queries used]   [GZIP enabled]