Заходят многие - остаются лучшие!
Здравствуйте Гость ( Вход | Регистрация ) Выслать повторно письмо для активации
Вход
Ваше имя Пароль Забыли пароль?
Запомнить Вас?
Войти скрытым?



 Правила раздела Новые сообщения раздела  


 

 Огни Баку (1950) Полная версия, Драма,киноповесть;Реж-И.Хейфиц,А.Зархи;Роли-Н.Охлопков,М.Геловани
SanSan48
  №1 Отправлено: 30.11.2014 - 10:07


"Спартак" - ЧЕМПИОН!!!

Группа: Пользователи
Регистрация: 28.12.2009
Сообщений: 1820
Обитает:
Последний раз был:
вчера в 19:57




Огни Баку (1950) Полная версия



В рамках проекта

Предыдущая раздача
03.05.2009 (SATrip) (Продолжительность - 01:11:46)

Название: Огни Баку
Жанр: драма, киноповест
Выпущено: СССР, Бакинская киностудия
Год выпуска: 1950
Премьера (СССР): 16 февраля 1958
Сценаристы: Иосиф Хейфиц, Григорий Колтунов, Евгений Помещиков
Операторы: Гавриил Егиазаров, А.Нариманбеков
Композитор: Кара Караев
Художники: Михаил Юферов, В.Агранов, М.Гумриев
Монтажёр: Е.Баженова

Режиссёры: Иосиф Хейфиц, Александр Зархи, Рза Тахмасиб

В ролях: Мирза Алиев, Николай Охлопков, Рза Тахмасиб, Наджиба Меликова, Николай Крючков, Петр Аржанов, Серке (Сералы) Кожамкулов, Михаил Геловани, Владимир Гардин, Марзия Давудова, Виктор Станицын, Мухлис Джани-заде, Микаил Микаилов, Минавар (Мина) Калантарли, Азиза Мамедова, Хейри Амирзаде, Николай Мордвинов и другие


Мирза Алиев … Али-Бала Алиев, буровой мастер
(дублирует А.Борисов)
Марзия Давудова … Ана-Ханум, жена Али-Бала Алиева
Николай Охлопков … Фёдор Яковлевич Шатров, инженер
Наджиба Меликова … Мирварид, дочь Али-Бала Алиева
(дублирует Н.Чередниченко)
И. Эль-Оглы … Фуад Садыхов, инженер
Николай Крючков … Иван Парамонов, нефтяник
Петр Аржанов … Фернандо Гарсия, геолог
Серке (Сералы) Кожамкулов … Кадыр Кырымкул, буровой мастер из Казахстана
Михаил Геловани … И.В.Сталин (роль вырезана в версии 1968 года)
(роль озвучил Владимир Татосов)
Николай Мордвинов … Л.П.Берия (роль вырезана в версии 1968 года)
Владимир Гардин … Верфильд, нефтепромышленник
Виктор Станицын … Черчилль
Хосров Меликов … нефтяник
Мухлис Джани-Заде … Кара, нефтяник
(дублирует В.Балашов)
Георгий Георгиу … член британской миссии (нет в титрах)
Рза Тахмасиб … Миджафар Багиров (нет в титрах)
Александр Шатов … Чарльз Семмер, геолог (нет в титрах)
Эммануил Геллер … официант (нет в титрах)
Минавар (Мина) Калантарли … эпизод (нет в титрах)
Азиза Мамедова … эпизод (нет в титрах)
Хайри Эмир-заде … эпизод (нет в титрах)

Озвучивание
Владимир Татосов … И.В.Сталин (роль М.Геловани) (нет в титрах)
Александр Борисов … Али-Бала Алиев (роль М.Алиева) (нет в титрах)
Надежда Чередниченко … Мирварид (роль Н.Меликовой) (нет в титрах)
Владимир Балашов … Кара (роль М.Джани-Заде) (нет в титрах)

Описание: Борьба советских нефтяников за превращение Баку в передовой район нефтедобычи.
30-е годы. Вернувшиеся из заграничной командировки советский инженер Шатров и буровой мастер Али-Бала с энтузиазмом берутся за переоборудование нефтепромыслов. Со всех концов страны прибывают машины, созданные на советских заводах; ширится эксплуатация нефтеносных участков. К началу Великой Отечественной войны район, где не покладаю рук трудятся Шатров и Али-Бала, оснащён новейшей техникой. Старейшие нефтяники Баку Шатров и Али-Бала, опираясь на энтузиазм рабочего коллектива, осваивают новые методы нефтяного бурения в открытом море... там и тут зажигаются огни новых вышек — огни Баку.

Дополнительная информация: Релиз:

Автор рипа: pmv

Большое спасибо за исходник от imolod

IMDb = 5,9/10 from 13 users - http://www.imdb.com/title/tt0052021/
Кинопоиск = 6.100 (27) - http://www.kinopoisk.ru/film/42744

Фильм был выпущен на экраны только в 1958 году в сокращённом виде - с полностью вырезанной ролью Берия. На ФЕНИКСе раздавалась версия, «восстановленная» в 1968 году, продолжительностью - 01:11:46. В этой версии полностью вырезаны также эпизоды со Сталиным и все упоминания о нём: портреты, заключительный тост и т. п.
В данной раздаче представлена полная версия - 01:24:12, в которой все вырезанные эпизоды со Сталиным и Берией имеются в наличии.
К сожалению качество видео не лучшее, НО - это единственная полная версия фильма, представленная в сети.


ВНИМАНИЕ! В нижней части экрана временами на несколько секунд появляется рекламная полоса. На одном из скринов с изображением Сталина её можно увидеть.

Параметры файла:
Имя файла: Огни Баку (1950).avi
Качество видео: TV
Формат видео: AVI
Размер: 1106.15 Mb ( 1 159 886 272 bytes )
Продолжительность: 01:24:12.160 (126304 frames)
Видео: 624x472 (1.32:1), 25 fps, XviD build 73 ~1698 kbps avg, 0.23 bit/pixel
Аудио: 48 kHz, MPEG Layer 3, 2 ch, ~128.00 kbps avg



General
Complete name : D:\torrents\огни баку (1950).avi
Format : AVI
Format/Info : Audio Video Interleave
File size : 1.08 GiB
Duration : 1h 24mn
Overall bit rate : 1 837 Kbps
Writing library : VirtualDub build 35576/release

Video
ID : 0
Format : MPEG-4 Visual
Format profile : Advanced Simple@L5
Format settings, BVOP : Yes
Format settings, QPel : No
Format settings, GMC : No warppoints
Format settings, Matrix : Default (H.263)
Codec ID : XVID
Codec ID/Hint : XviD
Duration : 1h 24mn
Bit rate : 1 699 Kbps
Width : 624 pixels
Height : 472 pixels
Display aspect ratio : 4:3
Frame rate : 25.000 fps
Resolution : 8 bits
Colorimetry : 4:2:0
Scan type : Progressive
Bits/(Pixel*Frame) : 0.231
Stream size : 1 023 MiB (93%)
Writing library : XviD 73

Audio
ID : 1
Format : MPEG Audio
Format version : Version 1
Format profile : Layer 3
Format_Settings_Mode : Joint stereo
Format_Settings_ModeExtension : MS Stereo
Codec ID : 55
Codec ID/Hint : MP3
Duration : 1h 24mn
Bit rate mode : Constant
Bit rate : 128 Kbps
Channel(s) : 2 channels
Sampling rate : 48.0 KHz
Stream size : 77.1 MiB (7%)
Alignment : Split accross interleaves
Interleave, duration : 40 ms (1.00 video frame)
Interleave, preload duration : 500 ms







Это сообщение отредактировал Alevtina - 5.05.2015 - 23:34


--------------------
"Спартак" - ЧЕМПИОН!!!

Скрыть подпись
Artschi
№2 Отправлено: 30.11.2014 - 10:34


Вперед смотрящий

Группа: Форумчане
Регистрация: 24.07.2009
Сообщений: 68
Обитает:
Последний раз был:
8.01.2017 - 17:10




Благодарю за фильм.
Архивы в порядке.
Все прекрасно скачалось и собралось.
Top
SanSan48
№3 Отправлено: 30.11.2014 - 11:30


"Спартак" - ЧЕМПИОН!!!

Группа: Пользователи
Регистрация: 28.12.2009
Сообщений: 1820
Обитает:
Последний раз был:
вчера в 19:57




Цитата
( Artschi @ 30.11.2014 - 10:34)
Благодарю за фильм.
Архивы в порядке.
Все прекрасно скачалось и собралось.

Artschi, Спасибо за сообщение!


--------------------
"Спартак" - ЧЕМПИОН!!!

Скрыть подпись
Top
1 человек просматривает эту тему (1 гость)
« Предыдущая тема | Отечественное кино | Следующая тема »


 



[Script Execution time: 0,0470]   [23 queries used]   [GZIP enabled]