Заходят многие - остаются лучшие!
Здравствуйте Гость ( Вход | Регистрация ) Выслать повторно письмо для активации
Вход
Ваше имя Пароль Забыли пароль?
Запомнить Вас?
Войти скрытым?



 Правила раздела Новые сообщения раздела  


 

 Удaчи мисс Вaйкофф / Good Luck, Miss Wyckoff (1978), Драма;Реж.-М.Дж.Чомски;Роли-Э.Хейвуд,Д.Плезенс,Р.Вон
SanSan48
  №1 Отправлено: 23.08.2018 - 13:26


"Спартак" - ЧЕМПИОН!!!

Группа: Пользователи
Регистрация: 28.12.2009
Сообщений: 1943
Обитает:
Последний раз был:
cегодня в 08:19




Удaчи мисс Вaйкофф / Good Luck, Miss Wyckoff (1978)




Жанр: Драма
Выпущено: США, Bel Air/Gradison Productions
Год выпуска: 1978
Премьера (мир): 13 апреля 1979 (США, Сиэтл), 27 октября 1979 (Япония), 9 мая 1980 (Португалия)
Сценарист: Полли Плэтт / Polly Platt
Оператор: Алекс Филлипс мл. / Álex Phillips Jr.
Композитор: Эрнест Голд / Ernest Gold
Художники: Джеймс Д. Бисселл / Jim Bissell
Монтажёр: Рита Роланд / Rita Roland

Режиссёры: Марвин Дж. Чомски / Marvin J. Chomsky

В ролях:
Энн Хейвуд / Anne Heywood ... Evelyn Wyckoff
Дональд Плезенс / Donald Pleasence ... Dr. Steiner
Роберт Вон / Robert Vaughn ... Dr. Neal
Эрл Холлиман / Earl Holliman ... Ed Eckles
Кэролин Джонс / Carolyn Jones ... Beth
Рони Блейкли / Ronee Blakley ... Betsy
Дороти Мэлоун / Dorothy Malone ... Mildred
Дорис Робертс / Doris Roberts ... Marie
Джон Лафайетт / John Lafayette ... Rafe Collins
Жослин Брандо / Jocelyn Brando ... Mrs. Hemmings
Р.Г. Армстронг / R.G. Armstrong ... Mr. Hemmings
Дэна Элкар / Dana Elcar ... Havermeyer
Дж. Патрик МакНамара / J. Patrick McNamara ... Chest Rollins
Гари Прендергаст / Gary Prendergast ... Marlon
Рип Кларк / Rip Clark ... Henry

Описание: По роману Уильяма Инджа (William Inge).
1954 год, Канзас. Преисполненные насилия и страстные отношения между немолодой белой учительницей и молодым чернокожим уборщиком усложняют её попытки справиться со своей сексуальностью и эмоциями…

Дополнительная информация: Релиз:

Исходник найден в сети.

Автор рипа: CCK+

Большое спасибо за:
- перевод и озвучивание - CCK+

ВНИМАНИЕ! ФИЛЬМ СОДЕРЖИТ СЦЕНЫ СЕКСУАЛЬНОГО НАСИЛИЯ!
НЕ РЕКОМЕНДУЕТСЯ ПРОСМОТР ЗРИТЕЛЯМ МОЛОЖЕ 18 ЛЕТ!


* На некоторых сайтах, в том числе на Кинопоиске, фамилия героини в названии фильма неверно передаётся как Викофф.

IMDB = 5,7/10 (176) - https://www.imdb.com/title/tt0079228/
Кинопоиск = - (17) - https://www.kinopoisk.ru/film/udachi-miss-vikoff-1979-14530/

Параметры файла:
Название: Удaчи мисс Вaйкофф 1978.avi
Качество видео: DVDrip
Формат видео: AVI
Размер: 1188.68 Mb ( 1 246 420 992 bytes )
Продолжительность: 01:46:35.440 (153337 frames)
Перевод и озвучивание: CCK+ (Сергей Квардаков)
Видео: 640x352 (1.82:1), 23.976 fps, XviD build 50 ~1160 kbps avg, 0.22 bit/pixel
Аудио #1: 48 kHz, AC3 Dolby Digital, 2/0 (L,R) ch, ~192.00 kbps avg – русская озвучка
Аудио #2: 48 kHz, AC3 Dolby Digital, 2/0 (L,R) ch, ~192.00 kbps avg – английский



General
Complete name : D:\torrents\Удaчи мисс Вaйкофф 1978.avi
Format : AVI
Format/Info : Audio Video Interleave
File size : 1.16 GiB
Duration : 1 h 46 min
Overall bit rate : 1 559 kb/s
Writing application : VirtualDubMod 1.5.10.2 (build 2540/release)
Writing library : VirtualDubMod build 2540/release

Video
ID : 0
Format : MPEG-4 Visual
Format profile : Advanced Simple@L5
Format settings, BVOP : 2
Format settings, QPel : No
Format settings, GMC : No warppoints
Format settings, Matrix : Default (H.263)
Codec ID : XVID
Codec ID/Hint : XviD
Duration : 1 h 46 min
Bit rate : 1 161 kb/s
Width : 640 pixels
Height : 352 pixels
Display aspect ratio : 16:9
Frame rate : 23.976 (24000/1001) FPS
Color space : YUV
Chroma subsampling : 4:2:0
Bit depth : 8 bits
Scan type : Progressive
Compression mode : Lossy
Bits/(Pixel*Frame) : 0.215
Stream size : 885 MiB (74%)
Writing library : XviD 1.2.1 (UTC 2008-12-04)

Audio #1
ID : 1
Format : AC-3
Format/Info : Audio Coding 3
Format settings, Endianness : Big
Codec ID : 2000
Duration : 1 h 46 min
Bit rate mode : Constant
Bit rate : 192 kb/s
Channel(s) : 2 channels
Channel positions : Front: L R
Sampling rate : 48.0 kHz
Frame rate : 31.250 FPS (1536 SPF)
Bit depth : 16 bits
Compression mode : Lossy
Stream size : 146 MiB (12%)
Alignment : Split accross interleaves
Interleave, duration : 42 ms (1.00 video frame)
Interleave, preload duration : 500 ms
Service kind : Complete Main

Audio #2
ID : 2
Format : AC-3
Format/Info : Audio Coding 3
Format settings, Endianness : Big
Codec ID : 2000
Duration : 1 h 46 min
Bit rate mode : Constant
Bit rate : 192 kb/s
Channel(s) : 2 channels
Channel positions : Front: L R
Sampling rate : 48.0 kHz
Frame rate : 31.250 FPS (1536 SPF)
Bit depth : 16 bits
Compression mode : Lossy
Stream size : 146 MiB (12%)
Alignment : Split accross interleaves
Interleave, duration : 42 ms (1.00 video frame)
Interleave, preload duration : 500 ms
Service kind : Complete Main








МОИ РАЗДАЧИ НА ФЕНИКСе: ЗДЕСЬ




Это сообщение отредактировал SanSan48 - 23.08.2018 - 18:24


--------------------
"Спартак" - ЧЕМПИОН!!!

Скрыть подпись


будулай
№2 Отправлено: 23.08.2018 - 15:04


Старожил

Группа: Форумчане
Регистрация: 13.11.2008
Сообщений: 694
Обитает:
Последний раз был:
вчера в 10:25




Большое спасибо! Всё скачалось и распаковалось на отлично!
Top
SanSan48
№3 Отправлено: 23.08.2018 - 15:56


"Спартак" - ЧЕМПИОН!!!

Группа: Пользователи
Регистрация: 28.12.2009
Сообщений: 1943
Обитает:
Последний раз был:
cегодня в 08:19




Цитата
( будулай @ 23.08.2018 - 15:04)
Большое спасибо! Всё скачалось и распаковалось на отлично!

будулай, Благодарю за сообщение!

Приятного всем просмотра!


--------------------
"Спартак" - ЧЕМПИОН!!!

Скрыть подпись
Top
1 человек просматривает эту тему (1 гость)
« Предыдущая тема | Зарубежные фильмы | Следующая тема »


 



[Script Execution time: 0,0363]   [22 queries used]   [GZIP enabled]