Заходят многие - остаются лучшие!
Здравствуйте Гость ( Вход | Регистрация ) Выслать повторно письмо для активации
Вход
Ваше имя Пароль Забыли пароль?
Запомнить Вас?
Войти скрытым?



Новые сообщения раздела  

 

 Жираф: африканские гиганты / National Geographic. Giraffe. African Giant (2015), National Geographic
bornik
  №1 Отправлено: 15.04.2017 - 04:17


Воспоминания - это богатства старости.

Группа: Модераторы
Регистрация: 18.08.2008
Сообщений: 966
Обитает:
Последний раз был:
cегодня в 02:24




Жираф: африканские гиганты / National Geographic. Giraffe. African Giant (2015)



«Жираф: африканские гиганты» - cвежий взгляд на самое высокое животное в мире. Мы узнаем, как этот африканский символ выживает в Кении, Южной Африке и Намибии.

Название: Жираф: африканские гиганты
Оригинальное название: Giraffe. African Giant
Год выпуска: 2015
Жанр: Документальный, природа, фауна, флора
Выпущено: Австрия, Terra Mater Factual Studios, National Geographic
Продолжительность: 00:43:22
Субтитры: Русские (мои)

Режиссёр: Херберт Оствальд / Herbert Ostwald

Программа озвучена студией "Велес"
Текст читает: Станислав Войнич

Описание: Самым высоким животным в мире является жираф. Это животное стало символом континента Африки. Обитает жираф в Кении, Намибии, юге материка. Посмотреть на жизнь этого удивительного животного предлагается вовсе с иной стороны. Рост жирафа равен высоте 2хэтажного дома. Самец может быть по росту около шести метров, при весе от пятисот до тысячи восемьсот килограмм. Обитает жираф среди кустарниковых и травянистых равнин, где произрастают отдельные деревья и кусты. Питается животное только листьями этих растений. Удивительная окраска жирафа потрясает. Он имеет длинные и очень тонкие ноги, а на шее находится крохотная голова с большими ушами, там же есть место для небольших рожек. Рожки есть, как у самки, так и самца. Отличаются они лишь тем, что у самок рожки покрыты нежным пушком и имеют скругленные концы.








General
Complete name : C:\DVD documental fimls\Жираф\Жираф: африканские гиганты (2015).avi
Format : AVI
Format/Info : Audio Video Interleave
File size : 684 MiB
Duration : 43mn 22s
Overall bit rate : 2 204 Kbps
Writing application : VirtualDubMod 1.5.10.2 (build 2540/release)
Writing library : VirtualDubMod build 2540/release

Video
ID : 0
Format : MPEG-4 Visual
Format profile : Advanced Simple@L5
Format settings, BVOP : 2
Format settings, QPel : No
Format settings, GMC : No warppoints
Format settings, Matrix : Default (H.263)
Muxing mode : Packed bitstream
Codec ID : XVID
Codec ID/Hint : XviD
Duration : 43mn 22s
Bit rate : 2 003 Kbps
Width : 720 pixels
Height : 400 pixels
Display aspect ratio : 16:9
Frame rate : 25.000 fps
Color space : YUV
Chroma subsampling : 4:2:0
Bit depth : 8 bits
Scan type : Progressive
Compression mode : Lossy
Bits/(Pixel*Frame) : 0.278
Stream size : 621 MiB (91%)
Writing library : XviD 65

Audio
ID : 1
Format : MPEG Audio
Format version : Version 1
Format profile : Layer 3
Mode : Joint stereo
Mode extension : MS Stereo
Codec ID : 55
Codec ID/Hint : MP3
Duration : 43mn 22s
Bit rate mode : Constant
Bit rate : 192 Kbps
Channel(s) : 2 channels
Sampling rate : 48.0 KHz
Compression mode : Lossy
Stream size : 59.6 MiB (9%)
Alignment : Aligned on interleaves
Interleave, duration : 40 ms (1.00 video frame)
Interleave, preload duration : 504 ms
Writing library : LAME3.98r
Encoding settings : -m j -V 4 -q 3 -lowpass 18.6 -b 192


=================================

Исходником послужил релиз HDTV, найденный на просторах инета!

Архивы созданы RAR-архиватором с добавлением 3% на восстановление и снабжены sfv-проверочником.
Просьба к первому скачавшему отписаться о сохранности архивов на источнике раздачи.


ПРИЯТНОГО ВСЕМ ПРОСМОТРА !!!




--------------------
Безоблачная старость – это миф,
Поскольку наша память – ширь морская,
И к ночи начинается прилив,
Со дна обломки прошлого таская.
Игорь Губерман

Скрыть подпись


baziss
№2 Отправлено: 15.04.2017 - 04:37


Аксакал обыкновенный

Группа: Аксакалы
Регистрация: 4.12.2005
Сообщений: 2475
Обитает:
Последний раз был:
cегодня в 02:34




Архив в порядке. Спасибо большое!


--------------------

Скрыть подпись
Top
bornik
№3 Отправлено: 15.04.2017 - 14:16


Воспоминания - это богатства старости.

Группа: Модераторы
Регистрация: 18.08.2008
Сообщений: 966
Обитает:
Последний раз был:
cегодня в 02:24




Цитата
( baziss @ 15.04.2017 - 04:37)
Архив в порядке. Спасибо большое!

И Вам, baziss, спасибо за добрую весть. happy_fly.gif


--------------------
Безоблачная старость – это миф,
Поскольку наша память – ширь морская,
И к ночи начинается прилив,
Со дна обломки прошлого таская.
Игорь Губерман

Скрыть подпись
Top
1 человек просматривает эту тему (1 гость)
« Предыдущая тема | Мир вокруг нас | Следующая тема »


 



[Script Execution time: 0,0325]   [23 queries used]   [GZIP enabled]