Заходят многие - остаются лучшие!
Здравствуйте Гость ( Вход | Регистрация ) Выслать повторно письмо для активации
Вход
Ваше имя Пароль Забыли пароль?
Запомнить Вас?
Войти скрытым?



 Правила раздела Новые сообщения раздела  


 

 Вий (1967), Ужасы,фэнтези;Реж.-Г.Кропачев,К.Ершов;Роли-Л.Куравлёв,Н.Варлей
SanSan48
  №1 Отправлено: 17.10.2016 - 18:07


"Спартак" - ЧЕМПИОН!!!

Группа: Пользователи
Регистрация: 28.12.2009
Сообщений: 1820
Обитает:
Последний раз был:
cегодня в 19:37




Вий (1967)



Предыдущие раздачи:
02.10.2015 (DVDrip)
15.01.2009 (DVDrip)
03.04.2007 (DVDrip)
18.04.2007 (DVDrip) (Архив)
24.06.2006 (DVDrip)

Жанр: Ужасы, фэнтези, драма
Выпущено: СССР, Мосфильм
Год выпуска: 1967
Премьера (СССР): 27 ноября 1967
Сценаристы: Георгий Кропачев, Константин Ершов, Александр Птушко
Операторы: Виктор Пищальников, Федор Проворов
Композитор: Карэн Хачатурян
Художники: Николай Маркин, Александр Птушко, Роза Сатуновская
Монтажёры: Регина Песецкая, Тамара Зубова

Режиссеры: Георгий Кропачев, Константин Ершов

В ролях:
Леонид Куравлёв … Хома Брут, бурсак, философ
Наталья Варлей … Панночка, дочь сотника (роль озвучена Кларой Румяновой)
Алексей Глазырин … сотник
Николай Кутузов … ведьма
Вадим Захарченко … Халява, бурсак, богослов
Пётр Вескляров … ректор бурсы/ Дорош (две роли)
Владимир Сальников … Горобец, бурсак, ритор
Дмитрий Капка … Оверко
Степан Шкурат … Явтух
Георгий Сочевко … Степан
Николай Яковченко … Спирид
Николай Панасьев … утешитель
Борислав Брондуков … бурсак (нет в титрах)
Любовь Калюжная … селянка (нет в титрах)
Александра Денисова … селянка (нет в титрах)
Виктор Колпаков … селянин (нет в титрах)
Николай Степанов … Вий (нет в титрах)
Борис Веселов … двуносый упырь (нет в титрах)
Александр Лебедев … бурсак, который доит козу (нет в титрах)

Описание: Мистическая фантазия по мотивам одноименной повести Николая Васильевича Гоголя.
Студент-философ Хома Брут должен провести несколько ночей у гроба умершей панночки в старой церквушке в далекой деревне. Сможет ли он побороть свой страх, или ему придется столкнуться с нечистой силой?..

Дополнительная информация: Релиз:

Автор рипа: pmv

Рип найден в сети – спасибо pirs18.

ВНИМАНИЕ!!! РИП ФОРМАТА mkv (кодек H.264) ВОСПРОИЗВОДИТСЯ НЕ НА ВСЕХ БЫТОВЫХ ВИДЕОПЛЕЕРАХ!!!

Сравнение с предыдущей раздачей на ФЕНИКСе - DVDrip <> BDrip:




IMDb = 7,5/10 (3 450) - http://www.imdb.com/title/tt0062453/
Кинопоиск = 7.862 (32 238) - https://www.kinopoisk.ru/film/45771/

Параметры файла:
Название файла: Вий (1967).mkv
Качество видео: BDRip-AVC
Формат видео: MKV
Размер: 1,43 ГБ (1 543 521 230 bytes)
Продолжительность: 01:16:24
Видео: AVC (H264), 880x648 (4:3), 23.976fps, 2500 Kbps, 0.183 Bits/Pixel
Аудио: Dolby AC3, 48 KHz, stereo (2 ch), 192 Kbps avg



General
Unique ID : 177258169255703740386199979160782662045 (0x855AAE7DB5C14714A58089D71B36699D)
Complete name : D:\torrents\Вий (1967).mkv
Format : Matroska
Format version : Version 4 / Version 2
File size : 1.44 GiB
Duration : 1h 16mn
Overall bit rate : 2 694 Kbps
Encoded date : UTC 2016-09-17 01:51:17
Writing application : mkvmerge v9.4.2 ('So High') 64bit
Writing library : libebml v1.3.4 + libmatroska v1.4.5
DURATION : 01:16:21.376000000
NUMBER_OF_FRAMES : 143168
NUMBER_OF_BYTES : 109953024
_STATISTICS_WRITING_APP : mkvmerge v9.4.2 ('So High') 64bit
_STATISTICS_WRITING_DATE_UTC : 2016-09-17 01:51:17
_STATISTICS_TAGS : BPS DURATION NUMBER_OF_FRAMES NUMBER_OF_BYTES

Video
ID : 1
Format : AVC
Format/Info : Advanced Video Codec
Format profile : High@L4.1
Format settings, CABAC : Yes
Format settings, ReFrames : 14 frames
Codec ID : V_MPEG4/ISO/AVC
Duration : 1h 16mn
Bit rate : 2 500 Kbps
Width : 880 pixels
Height : 648 pixels
Display aspect ratio : 4:3
Frame rate mode : Constant
Frame rate : 23.976 fps
Color space : YUV
Chroma subsampling : 4:2:0
Bit depth : 8 bits
Scan type : Progressive
Bits/(Pixel*Frame) : 0.183
Stream size : 1.31 GiB (91%)
Writing library : x264 core 146 r2538 121396c
Encoding settings : cabac=1 / ref=14 / deblock=1:0:0 / analyse=0x3:0x133 / me=umh / subme=10 / psy=1 / psy_rd=1.00:0.00 / mixed_ref=1 / me_range=24 / chroma_me=1 / trellis=2 / 8x8dct=1 / cqm=0 / deadzone=21,11 / fast_pskip=1 / chroma_qp_offset=-2 / threads=42 / lookahead_threads=5 / sliced_threads=0 / nr=0 / decimate=1 / interlaced=0 / bluray_compat=0 / constrained_intra=0 / bframes=8 / b_pyramid=2 / b_adapt=2 / b_bias=0 / direct=3 / weightb=1 / open_gop=0 / weightp=2 / keyint=250 / keyint_min=23 / scenecut=40 / intra_refresh=0 / rc_lookahead=60 / rc=2pass / mbtree=1 / bitrate=2500 / ratetol=1.0 / qcomp=0.60 / qpmin=0 / qpmax=69 / qpstep=4 / cplxblur=20.0 / qblur=0.5 / ip_ratio=1.40 / aq=1:1.00
Language : Russian
Default : Yes
Forced : No

Audio
ID : 2
Format : AC-3
Format/Info : Audio Coding 3
Mode extension : CM (complete main)
Format settings, Endianness : Big
Codec ID : A_AC3
Duration : 1h 16mn
Bit rate mode : Constant
Bit rate : 192 Kbps
Channel(s) : 2 channels
Channel positions : Front: L R
Sampling rate : 48.0 KHz
Bit depth : 16 bits
Compression mode : Lossy
Stream size : 105 MiB (7%)
Language : Russian
Default : Yes
Forced : No








МОИ РАЗДАЧИ НА ФЕНИКСе: ЗДЕСЬ




Это сообщение отредактировал SanSan48 - 5.12.2016 - 09:52


--------------------
"Спартак" - ЧЕМПИОН!!!

Скрыть подпись


EvgenySV
№2 Отправлено: 17.10.2016 - 19:35


Посетитель

Группа: Потребители
Регистрация: 30.12.2015
Сообщений: 180
Обитает:
Последний раз был:
cегодня в 21:02




Спасибо, архивы в порядке.
Top
Лорик123
№3 Отправлено: 17.10.2016 - 19:36


Прохожий

Группа: Потребители
Регистрация: 1.11.2014
Сообщений: 44
Обитает:
Последний раз был:
17.10.2017 - 10:38




Всё супер! Архивы в полном порядке. Огромно спасибо за фильм.


--------------------
Я желаю, чтобы сцена была так же узка, как проволока канатного плясуна, дабы неумелые не дерзали вступать на нее. /Гёте/

Скрыть подпись
Top
SanSan48
№4 Отправлено: 17.10.2016 - 20:06


"Спартак" - ЧЕМПИОН!!!

Группа: Пользователи
Регистрация: 28.12.2009
Сообщений: 1820
Обитает:
Последний раз был:
cегодня в 19:37




Цитата
EvgenySV @ Лорик123|8714778,17.10.2016 - 19:35
Спасибо, архивы в порядке.

EvgenySV, Лорик123, Благодарю за сообщение!

Приятного просмотра!!


Это сообщение отредактировал SanSan48 - 17.10.2016 - 20:08


--------------------
"Спартак" - ЧЕМПИОН!!!

Скрыть подпись
Top
wider2
№5 Отправлено: 18.10.2016 - 06:11


Живёт здесь

Группа: Потребители
Регистрация: 17.10.2006
Сообщений: 1009
Обитает:
Последний раз был:
cегодня в 18:19




кстати сейчас идея Вия наводит на тему 3 публичных дебатов Трампа и Клинтон
Панночка наезжает и наезжает, а Трамп все охранные круги мелом обводит


Это сообщение отредактировал wider2 - 18.10.2016 - 08:38
Top
SanSan48
№6 Отправлено: 20.10.2016 - 11:58


"Спартак" - ЧЕМПИОН!!!

Группа: Пользователи
Регистрация: 28.12.2009
Сообщений: 1820
Обитает:
Последний раз был:
cегодня в 19:37




Цитата
( wider2 @ 18.10.2016 - 06:11)
кстати сейчас идея Вия наводит на тему 3 публичных дебатов Трампа и Клинтон
Панночка наезжает и наезжает, а Трамп все охранные круги мелом обводит

Ассоциации у Вас какие-то странные...

А кто ж тогда Вия исполняет? Неужто ...


--------------------
"Спартак" - ЧЕМПИОН!!!

Скрыть подпись
Top
1 человек просматривает эту тему (1 гость)
« Предыдущая тема | Отечественное кино | Следующая тема »


 



[Script Execution time: 0,0362]   [23 queries used]   [GZIP enabled]