Заходят многие - остаются лучшие!
Здравствуйте Гость ( Вход | Регистрация ) Выслать повторно письмо для активации
Вход
Ваше имя Пароль Забыли пароль?
Запомнить Вас?
Войти скрытым?



 Правила раздела Новые сообщения раздела  


 

 Смерть негодяя / Death of a Scoundrel (1956), Джордж Сандерс, Ивонн Де Карло, За За Габор / криминал, фильм-нуар
surzhoks
  №1 Отправлено: 4.03.2018 - 13:16


Живёт здесь

Группа: Аксакалы
Регистрация: 17.03.2008
Сообщений: 1065
Обитает:
Последний раз был:
15.07.2018 - 20:26




Смерть негодяя / Death of a Scoundrel


Страна: США
Студия: Charles Martin Productions
Жанр: драма, криминал, фильм-нуар
Год выпуска: 1956
Продолжительность: 01:59:49
Режиссер: Чарльз Мартин / Charles Martin
Композитор: Макс Штайнер / Max Steiner

В ролях:
Джордж Сандерс / George Sanders ... Clementi Sabourin
Ивонн Де Карло / Yvonne De Carlo ... Bridget Kelly
За За Габор / Zsa Zsa Gabor ... Mrs. Ryan
Виктор Джори / Victor Jory ... Leonard Wilson
Нэнси Гейтс / Nancy Gates ... Stephanie North
Колин Грэй / Coleen Gray ... Mrs. Edith Van Renasslear
Джон Хойт / John Hoyt ... Mr. O'Hara
Лиза Феррадэй / Lisa Ferraday ... Zina Monte
Том Конуэй / Tom Conway ... Gerry Monte aka Sabourin
Селия Ловски / Celia Lovsky ... Mrs. Sabourin (Clementi's mother)
Вернер Клемперер / Werner Klemperer ... Herbert Bauman (Clementi's lawyer)
Джастис Уотсон / Justice Watson ... Henry (Clementi's butler)
Джон Саттон / John Sutton ... The Actor as «Tom» in Stage Play
Кертис Кукси / Curtis Cooksey ... Oswald Van Renassalear
Гэбриел Кертис / Gabriel Curtiz ... Max Freundlich
Моррис Анкрум / Morris Ankrum ... Capt. LaFarge (Homicide Squad)

Описание: Бывший беженец из Чехословакии, а ныне преуспевающий нью-йоркский финансист и миллионер Клементий Сабурин (Джордж Сандерс) найден мертвым в своем особняке на Парк-авеню. Дальнейшее повествование разворачивается ретроспективно и представляет собой рассказ секретарши Сабурина, мисс Келли (Ивонн Де Карло), о его постепенном восхождении к славе и богатству. Перед зрителем возникает образ финансового гения, обладающего незаурядным умом, но при этом человека совершенно аморального и беспринципного, добившегося всего, главным образом, путем интриг, мошенничества, предательства и обольщения дам. Считается, что прототипом Сабурина стал Серж Рубинштейн, русский эмигрант, который сделал в Америке, действуя аналогичными методами, карьеру финансового магната и был убит при загадочных обстоятельствах в январе 1955 года.

Доп. информация:
Огромное спасибо всем причастным к релизу:
рип - Магда,
перевод фильма - Naupiter2006 (Лариса Горбачева),
озвучивание фильма (по русским субтитрам) - Матвей Кенс,
работа со звуком и реавторинг DVD- AlekceyR76,
финансовая поддержка перевода и озвучивания фильма:
Магда, Lafajet, jasenka, елена 22, yanaelisa, Lars134, sindzi, voostorg, Ugo927, surzhoks, cementit, Patsy+, HippopotamusIV

Архивы созданы RAR-архиватором с добавлением 3% на восстановление и снабжены sfv-проверочником.
Просьба к первому скачавшему отписаться о сохранности архивов на источнике раздачи.

Раздача рассчитана на 2 месяца. На просмотр линка и скачивание 5 дней!
В случае если вы встали в очередь, а затем отказываетесь от скачивания без объяснения причин, возможен отказ в последующих моих раздачах.



Полное имя :Death of a Scoundrel.1956.avi
Формат : AVI
Формат/Информация : Audio Video Interleave
Размер файла : 1,62 Гбайт
Продолжительность : 1 ч. 59 м.
Общий поток : 1938 Кбит/сек
Программа кодирования : VirtualDubMod 1.5.4.1 (build 2178/release)
Библиотека кодирования : VirtualDubMod build 2178/release

Видео
Идентификатор : 0
Формат : MPEG-4 Visual
Профиль формата : Advanced Simple@L5
Параметр BVOP формата : 2
Параметр QPel формата : Нет
Параметр GMC формата : Без точки перехода
Параметр матрицы формата : Default (H.263)
Идентификатор кодека : DX50
Идентификатор кодека/Подсказка : DivX 5
Продолжительность : 1 ч. 59 м.
Битрейт : 1540 Кбит/сек
Ширина : 720 пикселей
Высота : 400 пикселей
Соотношение сторон : 16:9
Частота кадров : 23,976 кадра/сек
Цветовое пространство : YUV
Субдискретизация насыщенности : 4:2:0
Битовая глубина : 8 бит
Тип развёртки : Прогрессивная
Метод сжатия : С потерями
Бит/(Пиксели*Кадры) : 0.223
Размер потока : 1,29 Гбайт (79%)
Библиотека кодирования : XviD 73

Аудио #1
Идентификатор : 1
Формат : AC-3
Формат/Информация : Audio Coding 3
Расширение режима : CM (complete main)
Параметр Endianness формата : Big
Идентификатор кодека : 2000
Продолжительность : 1 ч. 59 м.
Вид битрейта : Постоянный
Битрейт : 192 Кбит/сек
Каналы : 2 канала
Расположение каналов : Front: L R
Частота : 48,0 КГц
Битовая глубина : 16 бит
Метод сжатия : С потерями
Размер потока : 165 Мбайт (10%)
Выравнивание : Разделение по промежуткам
Продолжительность промежутка : 42 мс. (1,00 видеокадр)
Время предзагрузки промежутка : 500 мс.

Аудио #2
Идентификатор : 2
Формат : AC-3
Формат/Информация : Audio Coding 3
Расширение режима : CM (complete main)
Параметр Endianness формата : Big
Идентификатор кодека : 2000
Продолжительность : 1 ч. 59 м.
Вид битрейта : Постоянный
Битрейт : 192 Кбит/сек
Каналы : 2 канала
Расположение каналов : Front: L R
Частота : 48,0 КГц
Битовая глубина : 16 бит
Метод сжатия : С потерями
Размер потока : 165 Мбайт (10%)
Выравнивание : Разделение по промежуткам
Продолжительность промежутка : 42 мс. (1,00 видеокадр)
Время предзагрузки промежутка : 500 мс.




Dushechka_2017
№2 Отправлено: 4.03.2018 - 13:38


Прохожий

Группа: Потребители
Регистрация: 27.12.2017
Сообщений: 24
Обитает:
Последний раз был:
cегодня в 09:43




Архивы в порядке - спасибо!
Top
ЦарьПушка
№3 Отправлено: 4.03.2018 - 16:36


ненавижу облако майл ру

Группа: Аксакалы
Регистрация: 8.09.2015
Сообщений: 11564
Обитает:
Последний раз был:
вчера в 19:24


Предупреждения:
(40%)


Подумал, что Делон


--------------------
План возрождения Феникса.
1. Уведомления о сообщениях - http://fenixclub.com/index.php?showtopic=182278
2. Возрождение Потока сознания - http://fenixclub.com/index.php?showtopic=182227&st=0
3. Наполнение контентом. http://fenixclub.com/index.php?showtopic=182383
4. Кнопка спасибо в каждом сообщении - http://fenixclub.com/index.php?showtopic=182380
5. Опрос о замене облака и диска - http://fenixclub.com/index.php?showtopic=183878

Скрыть подпись
Top
1 человек просматривает эту тему (1 гость)
« Предыдущая тема | Зарубежные фильмы | Следующая тема »


 



[Script Execution time: 0,0484]   [22 queries used]   [GZIP enabled]