Заходят многие - остаются лучшие!
Здравствуйте Гость ( Вход | Регистрация ) Выслать повторно письмо для активации
Вход
Ваше имя Пароль Забыли пароль?
Запомнить Вас?
Войти скрытым?



Новые сообщения раздела  

 

 Прогулка по Гатчине (2013), RTG Production Studios
bornik
  №1 Отправлено: 6.06.2018 - 17:29


Воспоминания - это богатства старости.

Группа: Модераторы
Регистрация: 18.08.2008
Сообщений: 1036
Обитает:
Последний раз был:
вчера в 07:16




Прогулка по Гатчине (2013)



«Прогулка по Гатчине» - предшественником города Гатчины считается село Хотчино, которое впервые упоминается в Новгородской писцовой книге 1500 года, а затем, как деревня Hotzino by в Дягилинском погосте в шведских «Писцовых книгах Ижорской земли» 1618—1623 годов.
По одной версии, этот топоним произошёл от сокращённой формы «Хот» одного из древнерусских личных имён (Хотчен, Хотимир, Хотен, Хотчена, Хотина), по другой — от древнефинского слова «хатша» — пожога; участок, где лес сожжён под пашню.
По «романтической» версии, на месте Гатчины в давние времена располагалось капище языческой богини Хочены, от имени которой якобы и произошло название села Хотчино.

Оригинальное название: Прогулка по Гатчине
Год выпуска: 2013
Жанр: Документальный, познавательный
Выпущено: Россия, , RTG Production Studios
Продолжительность: 00:24:52
Субтитры: Русские (мои)

Режиссёр: Мария Смелкова / Maria Smelkova
Сценарист: Андрей Акимов / Andrei Akimov

Ведущий: Надежда Лебедева / Nadezhda Lebedeva

Описание: Гатчина — один из самых красивых и загадочных пригородов Санкт-Петербурга. Это — любимая резиденция российских императоров Павла Первого и Александра Третьего. Царский дворец здесь похож на уединенный замок, возвышающийся над тихой водной гладью.
Ведущая RTG TV Надежда Лебедева не только познакомилась с достопримечательностями Гатчины, но и погрузилась в атмосферу старинных парков, полную тайн и загадок.
Зрителям предлагается совершить небольшую видеоэкскурсию и узнать почему Гатчина считается родиной российской военной авиации, а также увидеть место, где впервые были проведены испытания русской подводной лодки и ещё узнают для себя немало нового и интересного!









General
Complete name : C:\DVD documental fimls\RTG\Прогулка по Гатчине\Прогулка по Гатчине (2013).avi
Format : AVI
Format/Info : Audio Video Interleave
File size : 393 MiB
Duration : 24mn 52s
Overall bit rate : 2 207 Kbps
Writing application : VirtualDubModRus 1.5.10.2 (build 2540/release)
Writing library : VirtualDubMod build 2540/release

Video
ID : 0
Format : MPEG-4 Visual
Format profile : Advanced Simple@L5
Format settings, BVOP : 2
Format settings, QPel : No
Format settings, GMC : No warppoints
Format settings, Matrix : Default (H.263)
Muxing mode : Packed bitstream
Codec ID : XVID
Codec ID/Hint : XviD
Duration : 24mn 52s
Bit rate : 2 005 Kbps
Width : 720 pixels
Height : 400 pixels
Display aspect ratio : 16:9
Frame rate : 25.000 fps
Color space : YUV
Chroma subsampling : 4:2:0
Bit depth : 8 bits
Scan type : Progressive
Compression mode : Lossy
Bits/(Pixel*Frame) : 0.279
Stream size : 357 MiB (91%)
Writing library : XviD 65

Audio
ID : 1
Format : MPEG Audio
Format version : Version 1
Format profile : Layer 3
Codec ID : 55
Codec ID/Hint : MP3
Duration : 24mn 52s
Bit rate mode : Constant
Bit rate : 192 Kbps
Channel(s) : 2 channels
Sampling rate : 48.0 KHz
Compression mode : Lossy
Stream size : 34.2 MiB (9%)
Alignment : Aligned on interleaves
Interleave, duration : 40 ms (1.00 video frame)
Interleave, preload duration : 504 ms
Writing library : LAME3.98.4


=================================

Исходником послужил релиз HDTV, найденный на просторах инета!

Архивы созданы RAR-архиватором с добавлением 3% на восстановление и снабжены sfv-проверочником.
Просьба к первому скачавшему отписаться о сохранности архивов на источнике раздачи.


ПРИЯТНОГО ВСЕМ ПРОСМОТРА !!!




--------------------
Безоблачная старость – это миф,
Поскольку наша память – ширь морская,
И к ночи начинается прилив,
Со дна обломки прошлого таская.
Игорь Губерман

Скрыть подпись


bondsun
№2 Отправлено: 6.06.2018 - 19:52


кучерявый

Группа: Потребители
Регистрация: 17.08.2009
Сообщений: 4514
Обитает:
Последний раз был:
вчера в 19:05





Благодарствую, архивы в порядке.


--------------------
Пусть рушится мир весь вокруг, пополам,
Пусть часто фортуна не прёт.
Не кофе нас должен бодрить по утрам,
А тот, кто его подаёт.

happy.gif

Скрыть подпись
Top
bornik
№3 Отправлено: 7.06.2018 - 02:17


Воспоминания - это богатства старости.

Группа: Модераторы
Регистрация: 18.08.2008
Сообщений: 1036
Обитает:
Последний раз был:
вчера в 07:16




Цитата
( bondsun @ 6.06.2018 - 19:52)
Благодарствую, архивы в порядке.

И Вам, bondsun, спасибо за добрую весть. happy_fly.gif


--------------------
Безоблачная старость – это миф,
Поскольку наша память – ширь морская,
И к ночи начинается прилив,
Со дна обломки прошлого таская.
Игорь Губерман

Скрыть подпись
Top
1 человек просматривает эту тему (1 гость)
« Предыдущая тема | Мир вокруг нас | Следующая тема »


 



[Script Execution time: 0,0379]   [23 queries used]   [GZIP enabled]