Версия для печати темы
Нажмите сюда для просмотра этой темы в оригинальном формате
Киноклуб "Феникс" > Мир вокруг нас > Тайны дикой природы / National Geographic. Secrets Of The Wild (2013)


Автор: bornik 14.02.2017 - 17:26
«Тайны дикой природы» - десятилетиями люди пытались приблизиться к диким животным, но когда мы смотрели на них, они тоже смотрели на нас.

Название: Тайны дикой природы
Оригинальное название: Secrets Of The Wild
Год выпуска: 2013
Жанр: Документальный, природа, фауна, флора
Выпущено: (IMAGE: http://fenixclub.com/uploads/59697/img-613034-cfb45a0cd4.gif) Великобритания, (IMAGE: http://fenixclub.com/uploads/59697/img-613035-96cdf6d864.png) Spring Films Ltd, National Geographic Channel
Продолжительность: 02:11:47 (00:43:59 + 00:43:59 + 00:43:59)
Субтитры: Русские (мои)

Режиссёр: Линетт Сингер / Lynette Singer

Текст читает: Олег Белов

Описание: Теперь мы можем незаметно наблюдать за ними в естественных условиях. Новейшие технологии позволяют заглянуть в частную жизнь животных так, что они не узнают об этом. Мы можем снимать из далека, даже с воздуха. Камеры с дистанционным управлением принимают разные обличия и формы. Что бы подобраться к ним поближе можно снимать где угодно, когда угодно, как угодно и днём и ночью. Преданные своему делу натуралисты и создатели фильмов смело идут навстречу трудностям и опасностям, что бы открыть для нас самые сокровенные тайны дикой природы.

(IMAGE: http://fenixclub.com/uploads/59697/img-613061-ef9fcdb53e.jpg)

01 - На просторах / Exposed
Познакомьтесь с жизнью животных на больших открытых территориях, таких как равнины Серенгети, ледяные просторы Арктики и Тибетское нагорье.

(IMAGE: http://fenixclub.com/uploads/59697/img-613037-c77498e1e9.jpg)

http://fenixclub.com/uploads/59697/img-613062-c73b4712c8.jpghttp://fenixclub.com/uploads/59697/img-613063-c73b4712c8.jpghttp://fenixclub.com/uploads/59697/img-613064-c73b4712c8.jpghttp://fenixclub.com/uploads/59697/img-613065-c73b4712c8.jpghttp://fenixclub.com/uploads/59697/img-613066-c73b4712c8.jpg
http://fenixclub.com/uploads/59697/img-613067-c73b4712c8.jpghttp://fenixclub.com/uploads/59697/img-613068-c73b4712c8.jpghttp://fenixclub.com/uploads/59697/img-613069-c73b4712c8.jpghttp://fenixclub.com/uploads/59697/img-613070-c73b4712c8.jpghttp://fenixclub.com/uploads/59697/img-613071-c4fb229279.jpg


General
Complete name : C:\DVD documental fimls\Тайны дикой природы (2013)\01. Тайны дикой природы - На просторах (2013).avi
Format : AVI
Format/Info : Audio Video Interleave
File size : 694 MiB
Duration : 43mn 59s
Overall bit rate : 2 205 Kbps
Writing application : VirtualDubMod 1.5.10.2 (build 2540/release)
Writing library : VirtualDubMod build 2540/release

Video
ID : 0
Format : MPEG-4 Visual
Format profile : Advanced Simple@L5
Format settings, BVOP : 2
Format settings, QPel : No
Format settings, GMC : No warppoints
Format settings, Matrix : Default (H.263)
Muxing mode : Packed bitstream
Codec ID : XVID
Codec ID/Hint : XviD
Duration : 43mn 59s
Bit rate : 2 003 Kbps
Width : 720 pixels
Height : 400 pixels
Display aspect ratio : 16:9
Frame rate : 25.000 fps
Color space : YUV
Chroma subsampling : 4:2:0
Bit depth : 8 bits
Scan type : Progressive
Compression mode : Lossy
Bits/(Pixel*Frame) : 0.278
Stream size : 630 MiB (91%)
Writing library : XviD 65

Audio
ID : 1
Format : AC-3
Format/Info : Audio Coding 3
Mode extension : CM (complete main)
Codec ID : 2000
Duration : 43mn 59s
Bit rate mode : Constant
Bit rate : 192 Kbps
Channel(s) : 2 channels
Channel positions : Front: L R
Sampling rate : 48.0 KHz
Bit depth : 16 bits
Compression mode : Lossy
Stream size : 60.4 MiB (9%)
Alignment : Split accross interleaves
Interleave, duration : 40 ms (1.00 video frame)
Interleave, preload duration : 500 ms


=================================

02 - В водных глубинах / Going Deep
Удивительные существа прячутся в морях, реках и озерах планеты, но с помощью специального оборудования мы заглянем в их скрытый мир.

(IMAGE: http://fenixclub.com/uploads/59697/img-613038-14db007caf.jpg)

http://fenixclub.com/uploads/59697/img-613072-6829341e7e.jpghttp://fenixclub.com/uploads/59697/img-613073-6829341e7e.jpghttp://fenixclub.com/uploads/59697/img-613074-6829341e7e.jpghttp://fenixclub.com/uploads/59697/img-613075-6829341e7e.jpghttp://fenixclub.com/uploads/59697/img-613076-6829341e7e.jpg
http://fenixclub.com/uploads/59697/img-613077-6829341e7e.jpghttp://fenixclub.com/uploads/59697/img-613078-6829341e7e.jpghttp://fenixclub.com/uploads/59697/img-613079-6829341e7e.jpghttp://fenixclub.com/uploads/59697/img-613080-6829341e7e.jpghttp://fenixclub.com/uploads/59697/img-613081-4090008500.jpg


General
Complete name : C:\DVD documental fimls\Тайны дикой природы (2013)\02. Тайны дикой природы - В водных глубинах (2013).avi
Format : AVI
Format/Info : Audio Video Interleave
File size : 694 MiB
Duration : 43mn 59s
Overall bit rate : 2 204 Kbps
Writing application : VirtualDubMod 1.5.10.2 (build 2540/release)
Writing library : VirtualDubMod build 2540/release

Video
ID : 0
Format : MPEG-4 Visual
Format profile : Advanced Simple@L5
Format settings, BVOP : 2
Format settings, QPel : No
Format settings, GMC : No warppoints
Format settings, Matrix : Default (H.263)
Muxing mode : Packed bitstream
Codec ID : XVID
Codec ID/Hint : XviD
Duration : 43mn 59s
Bit rate : 2 002 Kbps
Width : 720 pixels
Height : 400 pixels
Display aspect ratio : 16:9
Frame rate : 25.000 fps
Color space : YUV
Chroma subsampling : 4:2:0
Bit depth : 8 bits
Scan type : Progressive
Compression mode : Lossy
Bits/(Pixel*Frame) : 0.278
Stream size : 630 MiB (91%)
Writing library : XviD 65

Audio
ID : 1
Format : AC-3
Format/Info : Audio Coding 3
Mode extension : CM (complete main)
Codec ID : 2000
Duration : 43mn 59s
Bit rate mode : Constant
Bit rate : 192 Kbps
Channel(s) : 2 channels
Channel positions : Front: L R
Sampling rate : 48.0 KHz
Bit depth : 16 bits
Compression mode : Lossy
Stream size : 60.4 MiB (9%)
Alignment : Split accross interleaves
Interleave, duration : 40 ms (1.00 video frame)
Interleave, preload duration : 500 ms


=================================

03 - Затерянные миры / Lost Worlds
В густых лесах и других труднопроходимых местах новые технологии позволяют снимать удивительные моменты из жизни диких животных.

(IMAGE: http://fenixclub.com/uploads/59697/img-613039-1d241bd67d.jpg)

http://fenixclub.com/uploads/59697/img-613082-f97f284144.jpghttp://fenixclub.com/uploads/59697/img-613083-f97f284144.jpghttp://fenixclub.com/uploads/59697/img-613084-f97f284144.jpghttp://fenixclub.com/uploads/59697/img-613085-f97f284144.jpghttp://fenixclub.com/uploads/59697/img-613086-f97f284144.jpg
http://fenixclub.com/uploads/59697/img-613087-f97f284144.jpghttp://fenixclub.com/uploads/59697/img-613088-f97f284144.jpghttp://fenixclub.com/uploads/59697/img-613089-f97f284144.jpghttp://fenixclub.com/uploads/59697/img-613090-f97f284144.jpghttp://fenixclub.com/uploads/59697/img-613091-93ce67c282.jpg


General
Complete name : C:\DVD documental fimls\Тайны дикой природы (2013)\03. Тайны дикой природы - Затерянные миры (2013).avi
Format : AVI
Format/Info : Audio Video Interleave
File size : 694 MiB
Duration : 43mn 59s
Overall bit rate : 2 205 Kbps
Writing application : VirtualDubMod 1.5.10.2 (build 2540/release)
Writing library : VirtualDubMod build 2540/release

Video
ID : 0
Format : MPEG-4 Visual
Format profile : Advanced Simple@L5
Format settings, BVOP : 2
Format settings, QPel : No
Format settings, GMC : No warppoints
Format settings, Matrix : Default (H.263)
Muxing mode : Packed bitstream
Codec ID : XVID
Codec ID/Hint : XviD
Duration : 43mn 59s
Bit rate : 2 003 Kbps
Width : 720 pixels
Height : 400 pixels
Display aspect ratio : 16:9
Frame rate : 25.000 fps
Color space : YUV
Chroma subsampling : 4:2:0
Bit depth : 8 bits
Scan type : Progressive
Compression mode : Lossy
Bits/(Pixel*Frame) : 0.278
Stream size : 630 MiB (91%)
Writing library : XviD 65

Audio
ID : 1
Format : AC-3
Format/Info : Audio Coding 3
Mode extension : CM (complete main)
Codec ID : 2000
Duration : 43mn 59s
Bit rate mode : Constant
Bit rate : 192 Kbps
Channel(s) : 2 channels
Channel positions : Front: L R
Sampling rate : 48.0 KHz
Bit depth : 16 bits
Compression mode : Lossy
Stream size : 60.4 MiB (9%)
Alignment : Split accross interleaves
Interleave, duration : 40 ms (1.00 video frame)
Interleave, preload duration : 500 ms


=================================

Исходником послужил релиз HDTV, найденный на просторах инета!

Архивы созданы RAR-архиватором с добавлением 3% на восстановление и снабжены sfv-проверочником.
Просьба к первому скачавшему отписаться о сохранности архивов на источнике раздачи.

Раздача рассчитана на месяц.

ПРИЯТНОГО ВСЕМ ПРОСМОТРА !!!

Автор: Alevtina 14.02.2017 - 22:11
bornik, архивы в порядке! Все хорошо! Спасибо за прекрасную раздачу! :zdr: Все так красиво!!! :fly:

Автор: bornik 15.02.2017 - 02:44
------------ QUOTE ---------- bornik, архивы в порядке! Все хорошо! Спасибо за прекрасную раздачу! :zdr: Все так красиво!!! :fly: -----------------------------
И Вам, Alevtina, спасибо за добрую весть. :fly:

Автор: grival406 5.03.2017 - 07:57
bornik! Большое спасибо!
Любимая передача!

Автор: bornik 8.03.2017 - 05:34
------------ QUOTE ---------- bornik! Большое спасибо!
Любимая передача! -----------------------------
grival406, пожалуйста.
Любуйтесь на здоровье! ;)

Powered by Invision Power Board (http://www.invisionboard.com)
© Invision Power Services (http://www.invisionpower.com)