Заходят многие - остаются лучшие!
Здравствуйте Гость ( Вход | Регистрация ) Выслать повторно письмо для активации
Вход
Ваше имя Пароль Забыли пароль?
Запомнить Вас?
Войти скрытым?



Новые сообщения раздела  

 

 Свечная мастерская Валаамского монастыря (2013), RTG Production Studios
bornik
  №1 Отправлено: 5.07.2018 - 18:10


Воспоминания - это богатства старости.

Группа: Модераторы
Регистрация: 18.08.2008
Сообщений: 1036
Обитает:
Последний раз был:
вчера в 15:31




Свечная мастерская Валаамского монастыря (2013)



«Свечная мастерская Валаамского монастыря» — неровное, живое пламя свечей наполняет своды православного храма, создаёт особую таинственную атмосферу. Этот трепещущий свет озаряет человека в минуты самых сокровенных молитв. Чаще всего, с маленькой свечки, с ее светлого, теплого, пульсирующего пламени начинается практика веры, участие человека в жизни церкви. Без свечи невозможно себе представить православного богослужения. В течение столетий складывались традиции, связанные с их возжиганием. Ведь свечи служат не только для освещения. Свет свечи в православном храме для верующего - это образ Божественного света.


Оригинальное название: Свечная мастерская Валаамского монастыря
Год выпуска: 2013
Жанр: Документальный, познавательный
Выпущено: Россия, , RTG Production Studios
Продолжительность: 00:23:35
Субтитры: Русские (мои)

Режиссёр: Сергей Ярмоленко / Sergey Yermolenko
Сценаристы: Сергей Зорькин / Sergey Zorkin

Ведущий: Александр Уваров / Alexander Uvarov


Описание: Без неровного, как будто живого, света свечи невозможно представить православный храм. Свечи - это и добровольная жертва верующего человека церкви, и символ его молитвы. В течение веков в православных обителях монахи сохраняли секреты свечного производства. Есть свои традиции и в Спасо-Преображенском Валаамском мужском монастыре, одной из самых известных обителей Северо-Запада России. Труд в свечной мастерской для братии - монашеское послушание, обязательная монастырская работа. Несмотря на кажущуюся простоту технологии, изготовление церковных свечей требует от монахов сноровки и опыта.
Зрителям предлагается совершить небольшую видеоэкскурсию и узнать для себя немало нового и интересного!









General
Complete name : C:\DVD documental fimls\RTG\Свечная мастерская Валаамского монастыря\Свечная мастерская Валаамского монастыря (2013).avi
Format : AVI
Format/Info : Audio Video Interleave
File size : 372 MiB
Duration : 23mn 35s
Overall bit rate : 2 204 Kbps
Writing library : VirtualDub build 35491/release

Video
ID : 0
Format : MPEG-4 Visual
Format profile : Advanced Simple@L5
Format settings, BVOP : 2
Format settings, QPel : No
Format settings, GMC : No warppoints
Format settings, Matrix : Default (H.263)
Muxing mode : Packed bitstream
Codec ID : XVID
Codec ID/Hint : XviD
Duration : 23mn 35s
Bit rate : 1 999 Kbps
Width : 720 pixels
Height : 400 pixels
Display aspect ratio : 16:9
Frame rate : 25.000 fps
Color space : YUV
Chroma subsampling : 4:2:0
Bit depth : 8 bits
Scan type : Progressive
Compression mode : Lossy
Bits/(Pixel*Frame) : 0.278
Stream size : 337 MiB (91%)
Writing library : XviD 65

Audio
ID : 1
Format : MPEG Audio
Format version : Version 1
Format profile : Layer 3
Mode : Joint stereo
Codec ID : 55
Codec ID/Hint : MP3
Duration : 23mn 35s
Bit rate mode : Constant
Bit rate : 192 Kbps
Channel(s) : 2 channels
Sampling rate : 48.0 KHz
Compression mode : Lossy
Stream size : 32.4 MiB (9%)
Alignment : Aligned on interleaves
Interleave, duration : 24 ms (0.60 video frame)
Interleave, preload duration : 504 ms
Writing library : LAME3.98.2


=================================

Исходником послужил релиз HDTV, найденный на просторах инета!

Архивы созданы RAR-архиватором с добавлением 3% на восстановление и снабжены sfv-проверочником.
Просьба к первому скачавшему отписаться о сохранности архивов на источнике раздачи.


ПРИЯТНОГО ВСЕМ ПРОСМОТРА !!!




--------------------
Безоблачная старость – это миф,
Поскольку наша память – ширь морская,
И к ночи начинается прилив,
Со дна обломки прошлого таская.
Игорь Губерман

Скрыть подпись


valkopt
№2 Отправлено: 5.07.2018 - 20:25


Старожил

Группа: Потребители
Регистрация: 10.04.2007
Сообщений: 570
Обитает:
Последний раз был:
cегодня в 18:27




Архивы качаются, собираются, смотрятся.

Спасибо за раздачу!
Top
bornik
№3 Отправлено: 5.07.2018 - 20:48


Воспоминания - это богатства старости.

Группа: Модераторы
Регистрация: 18.08.2008
Сообщений: 1036
Обитает:
Последний раз был:
вчера в 15:31




Цитата
( valkopt @ 5.07.2018 - 20:25)
Архивы качаются, собираются, смотрятся.

Спасибо за раздачу!

И Вам, valkopt, спасибо за добрую весть. happy_fly.gif


--------------------
Безоблачная старость – это миф,
Поскольку наша память – ширь морская,
И к ночи начинается прилив,
Со дна обломки прошлого таская.
Игорь Губерман

Скрыть подпись
Top
1 человек просматривает эту тему (1 гость)
« Предыдущая тема | Мир вокруг нас | Следующая тема »


 



[Script Execution time: 0,0317]   [23 queries used]   [GZIP enabled]