Заходят многие - остаются лучшие!
Здравствуйте Гость ( Вход | Регистрация ) Выслать повторно письмо для активации
Вход
Ваше имя Пароль Забыли пароль?
Запомнить Вас?
Войти скрытым?



Новые сообщения раздела  

 

 Боевые награды Советского Союза [2 фильма] (2010)
bornik
  №1 Отправлено: 18.05.2017 - 16:41


Воспоминания - это богатства старости.

Группа: Модераторы
Регистрация: 18.08.2008
Сообщений: 922
Обитает:
Последний раз был:
вчера в 19:46




Боевые награды Советского Союза [2 фильма] (2010)



«Боевые награды Советского Союза» - одним из первых декретов Советской власти был принятый 10 ноября 1917 г. декрет ВЦИК и Совнаркома "Об уничтожении сословий и гражданских чинов". Этим декретом были, в частности, упразднены все ордена, медали и другие знаки отличия, существовавшие в дореволюционной России. Однако менее чем через год, когда шла гражданская война, возникла проблема установления специальной награды для лиц, проявивших особую доблесть в боях. В этой связи декретом ВЦИК от 16 сентября 1918 г. был учрежден первый советский орден - "Красное Знамя" РСФСР. В указанном декрете было сказано: "Этот знак отличия присуждается всем гражданам Российской Социалистической Федеративной Советской Республики, проявившим особую храбрость и мужество при непосредственной боевой деятельности".

Название: Боевые награды Советского Союза (2 фильма)
Год выпуска: 2010
Жанр: Документальный, исторический
Выпущено: Россия, ООО «Студия «КРЫЛЬЯ РОССИИ» по заказу ОАО «ТРК ВС РФ «ЗВЕЗДА»
Продолжительность: 01:14:44 (00:37:22 + 00:37:22)

Режиссёр: Константин Поляков

Продюсер: Сергей Викулин

Текст читает: Народный артист России Александр Клюквин

Описание: Почему на первом варианте ордена Ленина отсутствовали изображения красного знамени и красной звезды - основных советских символов?
Почему орден Славы первоначально назывался орден Багратиона?
На медали «За оборону Москвы» изображён танк Т-34. Чем же так стал знаменит этот танк, что попал на медаль?
Эти и многие другие вопросы будут освещены в фильме, а также в нём расскажут обо всех наградах Советского Союза и раскроют неизвестные ранее страницы истории, связанные с орденами и медалями. Также данный фильм должен дать представление о советской системе награждений, об отношении общества, рядовых граждан, руководителей страны к орденам и медалям, показать эффективность награждений в разные эпохи.

Фильм первый: 1917 - 1941









General
Complete name : C:\DVD documental fimls\Боевые награды\Боевые награды Советского Союза. Фильм 1 (1917-1941).avi
Format : AVI
Format/Info : Audio Video Interleave
File size : 589 MiB
Duration : 37mn 22s
Overall bit rate : 2 204 Kbps
Writing application : VirtualDubMod 1.5.10.2 (build 2540/release)
Writing library : VirtualDubMod build 2540/release

Video
ID : 0
Format : MPEG-4 Visual
Format profile : Advanced Simple@L5
Format settings, BVOP : 2
Format settings, QPel : No
Format settings, GMC : No warppoints
Format settings, Matrix : Default (H.263)
Muxing mode : Packed bitstream
Codec ID : XVID
Codec ID/Hint : XviD
Duration : 37mn 22s
Bit rate : 2 003 Kbps
Width : 720 pixels
Height : 544 pixels
Display aspect ratio : 4:3
Frame rate : 25.000 fps
Color space : YUV
Chroma subsampling : 4:2:0
Bit depth : 8 bits
Scan type : Progressive
Compression mode : Lossy
Bits/(Pixel*Frame) : 0.205
Stream size : 535 MiB (91%)
Writing library : XviD 65

Audio
ID : 1
Format : MPEG Audio
Format version : Version 1
Format profile : Layer 3
Mode : Joint stereo
Mode extension : MS Stereo
Codec ID : 55
Codec ID/Hint : MP3
Duration : 37mn 22s
Bit rate mode : Constant
Bit rate : 192 Kbps
Channel(s) : 2 channels
Sampling rate : 48.0 KHz
Compression mode : Lossy
Stream size : 51.3 MiB (9%)
Alignment : Aligned on interleaves
Interleave, duration : 40 ms (1.00 video frame)
Interleave, preload duration : 504 ms
Writing library : LAME3.98r
Encoding settings : -m j -V 4 -q 3 -lowpass 18.6 -b 192


=================================

Фильм второй: 1941 - 1991









General
Complete name : C:\DVD documental fimls\Боевые награды\Боевые награды Советского Союза. Фильм 2 (1941-1991).avi
Format : AVI
Format/Info : Audio Video Interleave
File size : 589 MiB
Duration : 37mn 22s
Overall bit rate : 2 204 Kbps
Writing application : VirtualDubMod 1.5.10.2 (build 2540/release)
Writing library : VirtualDubMod build 2540/release

Video
ID : 0
Format : MPEG-4 Visual
Format profile : Advanced Simple@L5
Format settings, BVOP : 2
Format settings, QPel : No
Format settings, GMC : No warppoints
Format settings, Matrix : Default (H.263)
Muxing mode : Packed bitstream
Codec ID : XVID
Codec ID/Hint : XviD
Duration : 37mn 22s
Bit rate : 2 003 Kbps
Width : 720 pixels
Height : 544 pixels
Display aspect ratio : 4:3
Frame rate : 25.000 fps
Color space : YUV
Chroma subsampling : 4:2:0
Bit depth : 8 bits
Scan type : Progressive
Compression mode : Lossy
Bits/(Pixel*Frame) : 0.205
Stream size : 535 MiB (91%)
Writing library : XviD 65

Audio
ID : 1
Format : MPEG Audio
Format version : Version 1
Format profile : Layer 3
Mode : Joint stereo
Mode extension : MS Stereo
Codec ID : 55
Codec ID/Hint : MP3
Duration : 37mn 22s
Bit rate mode : Constant
Bit rate : 192 Kbps
Channel(s) : 2 channels
Sampling rate : 48.0 KHz
Compression mode : Lossy
Stream size : 51.3 MiB (9%)
Alignment : Aligned on interleaves
Interleave, duration : 40 ms (1.00 video frame)
Interleave, preload duration : 504 ms
Writing library : LAME3.98r
Encoding settings : -m j -V 4 -q 3 -lowpass 18.6 -b 192


=================================

Исходником послужил релиз DVB, найденный на просторах инета!

Архивы созданы RAR-архиватором с добавлением 3% на восстановление и снабжены sfv-проверочником.
Просьба к первому скачавшему отписаться о сохранности архивов на источнике раздачи.

Раздача рассчитана на месяц.

ПРИЯТНОГО ВСЕМ ПРОСМОТРА !!!




--------------------
Безоблачная старость – это миф,
Поскольку наша память – ширь морская,
И к ночи начинается прилив,
Со дна обломки прошлого таская.
Игорь Губерман

Скрыть подпись


kyo
№2 Отправлено: 19.05.2017 - 04:13


Живёт здесь

Группа: Потребители
Регистрация: 21.07.2007
Сообщений: 1763
Обитает:
Последний раз был:
вчера в 06:42




Архивы в порядке, спасибо !
Top
Nadejdaenergia
№3 Отправлено: 19.05.2017 - 15:34


Когда всё плохое уходит, остаётся только хорошее.

Группа: Модераторы
Регистрация: 21.03.2012
Сообщений: 5352
Обитает:
Последний раз был:
вчера в 13:26




Благодарю за познавательный фильм.
Top
1 человек просматривает эту тему (1 гость)
« Предыдущая тема | Летопись времён и идей | Следующая тема »


 



[Script Execution time: 0,0333]   [22 queries used]   [GZIP enabled]