Заходят многие - остаются лучшие!
Здравствуйте Гость ( Вход | Регистрация ) Выслать повторно письмо для активации
Вход
Ваше имя Пароль Забыли пароль?
Запомнить Вас?
Войти скрытым?



 Правила раздела Новые сообщения раздела  


 

 Сын Индии / Son of India (1931), Рамон Новарро / драма, мелодрама
surzhoks
  №1 Отправлено: 26.02.2018 - 09:16


Живёт здесь

Группа: Аксакалы
Регистрация: 17.03.2008
Сообщений: 1064
Обитает:
Последний раз был:
4.06.2018 - 19:46




Сын Индии / Son of India


Страна: США
Студия: Metro-Goldwyn-Mayer (MGM)
Жанр: драма, мелодрама
Год выпуска: 1931
Продолжительность: 01:13:08
Режиссер: Жак Фейдер / Jacques Feyder

В ролях:
Рамон Новарро / Ramon Novarro ... Karim
Конрад Нэйджел / Conrad Nagel ... William Darsay
Марджори Рэмбо / Marjorie Rambeau ... Mrs. Darsay
Мэдж Эванс / Madge Evans ... Janice
С. Обри Смит / C. Aubrey Smith ... Dr. Wallace
Митчелл Льюис / Mitchell Lewis ... Hamid
Джон Мильян / John Miljan ... Juggat
Найджел Де Брулир / Nigel De Brulier ... Rao Rama
Джералд Бэрри / Gerald Barry ... Janice's Admirer, в титрах не указан
Кэтрин ДеМилль / Katherine DeMille ... Amah - Karim's Servant, в титрах не указана
Энн Дворак / Ann Dvorak ... Dancer, в титрах не указана
Джон Джордж / John George ... Beggar, в титрах не указан

Описание: Карим - коллекционер драгоценностей, который является одним из самых богатых людей в Бомбее, ещё десять лет назад просто нищенствовал. Источником его богатства является алмаз, полученный Каримом от отца-ювелира, который из-за драгоценностей был убит мародерствующими бандитами.
Теперь Карим живёт на широкую ногу, не пропуская ни одного светского мероприятия. Однажды на матче в поло он встречает Дженис Дарси, привлекательную молодую американку, которая путешествует по Индии в сопровождении своей тёти и доктора Уоллеса. Между Каримом и Дженис вспыхивает любовь с первого взгляда. Но их межрасовый роман вызывает неодобрение окружающих...


Доп. информация:
Огромное спасибо всем причастным к релизу:
рип - Магда,
перевод фильма, субтитры - Marti (Conrad_Siegfried),
озвучивание фильма (по русским субтитрам)- Kenum (Владислав Данилов),
работа со звуком и реавторинг DVD- AlekceyR76,
финансовая поддержка перевода и озвучивания фильма:
Магда, Lafajet, jasenka, yanaelisa, sindzi, cementit, voostorg, HippopotamusIV, борюська, sapog1960, spartakeynoir, mangust1, GalaUkr

Архивы созданы RAR-архиватором с добавлением 3% на восстановление и снабжены sfv-проверочником.
Просьба к первому скачавшему отписаться о сохранности архивов на источнике раздачи.

Раздача рассчитана на 2 месяца. На просмотр линка и скачивание 5 дней!
В случае если вы встали в очередь, а затем отказываетесь от скачивания без объяснения причин, возможен отказ в последующих моих раздачах.



Полное имя :Son of India.avi
Формат : AVI
Формат/Информация : Audio Video Interleave
Размер файла : 1,37 Гбайт
Продолжительность : 1 ч. 13 м.
Общий поток : 2681 Кбит/сек
Программа кодирования : VirtualDubMod 1.5.10.3 | www.virtualdub-fr.org || (build 2550/release)
Библиотека кодирования : VirtualDubMod build 2550/release

Видео
Идентификатор : 0
Формат : MPEG-4 Visual
Профиль формата : Advanced Simple@L5
Параметр BVOP формата : 2
Параметр QPel формата : Нет
Параметр GMC формата : Без точки перехода
Параметр матрицы формата : Default (H.263)
Идентификатор кодека : DX50
Идентификатор кодека/Подсказка : DivX 5
Продолжительность : 1 ч. 13 м.
Битрейт : 2283 Кбит/сек
Ширина : 640 пикселей
Высота : 480 пикселей
Соотношение сторон : 4:3
Частота кадров : 23,976 кадра/сек
Цветовое пространство : YUV
Субдискретизация насыщенности : 4:2:0
Битовая глубина : 8 бит
Тип развёртки : Прогрессивная
Метод сжатия : С потерями
Бит/(Пиксели*Кадры) : 0.310
Размер потока : 1,17 Гбайт (85%)
Библиотека кодирования : XviD 73

Аудио #1
Идентификатор : 1
Формат : AC-3
Формат/Информация : Audio Coding 3
Расширение режима : CM (complete main)
Параметр Endianness формата : Big
Идентификатор кодека : 2000
Продолжительность : 1 ч. 13 м.
Вид битрейта : Постоянный
Битрейт : 192 Кбит/сек
Каналы : 2 канала
Расположение каналов : Front: L R
Частота : 48,0 КГц
Битовая глубина : 16 бит
Метод сжатия : С потерями
Размер потока : 100 Мбайт (7%)
Выравнивание : Разделение по промежуткам
Продолжительность промежутка : 42 мс. (1,00 видеокадр)
Время предзагрузки промежутка : 500 мс.

Аудио #2
Идентификатор : 2
Формат : AC-3
Формат/Информация : Audio Coding 3
Расширение режима : CM (complete main)
Параметр Endianness формата : Big
Идентификатор кодека : 2000
Продолжительность : 1 ч. 13 м.
Вид битрейта : Постоянный
Битрейт : 192 Кбит/сек
Каналы : 2 канала
Расположение каналов : Front: L R
Частота : 48,0 КГц
Битовая глубина : 16 бит
Метод сжатия : С потерями
Размер потока : 100 Мбайт (7%)
Выравнивание : Разделение по промежуткам
Продолжительность промежутка : 42 мс. (1,00 видеокадр)
Время предзагрузки промежутка : 500 мс.




Dushechka_2017
№2 Отправлено: 26.02.2018 - 12:01


Прохожий

Группа: Потребители
Регистрация: 27.12.2017
Сообщений: 21
Обитает:
Последний раз был:
вчера в 15:34




С архивами всё ОК - спасибо!
Top
1 человек просматривает эту тему (1 гость)
« Предыдущая тема | Зарубежные фильмы | Следующая тема »


 



[Script Execution time: 0,0418]   [23 queries used]   [GZIP enabled]