Заходят многие - остаются лучшие!
Здравствуйте Гость ( Вход | Регистрация ) Выслать повторно письмо для активации
Вход
Ваше имя Пароль Забыли пароль?
Запомнить Вас?
Войти скрытым?



 Правила раздела Новые сообщения раздела  


 

 Пока не поплывут / Until They Sail (1957), Пол Ньюман, Джин Симмонс, Джоан Фонтейн, Пайпер Лори, Сандра Ди
surzhoks
  №1 Отправлено: 15.01.2017 - 19:40


Старожил

Группа: Аксакалы
Регистрация: 17.03.2008
Сообщений: 919
Обитает:
Последний раз был:
26.03.2017 - 19:44




Пока не поплывут / Until They Sail


Страна: США
Студия: Metro-Goldwyn-Mayer (MGM)
Жанр: драма, мелодрама, военный
Год выпуска: 1957
Продолжительность: 01:34:43
Режиссер: Роберт Уайз / Robert Wise
Композитор: Дэвид Рэксин / David Raksin
В ролях:
Джин Симмонс / Jean Simmons ... Barbara
Джоан Фонтейн / Joan Fontaine ... Anne
Пайпер Лори / Piper Laurie ... Delia
Сандра Ди / Sandra Dee ... Evelyn
Пол Ньюман / Paul Newman ... Capt. Jack Harding
Чарльз Дрэйк / Charles Drake ... Capt. Richard Bates
Уолли Кассел / Wally Cassell ... Phil Friskett aka Shiner
Джон Уайлдер / John Wilder ... Tommy
Адам Кеннеди / Adam Kennedy ... Andy
Ральф Вотриан / Ralph Votrian ... Max
Тайг Эндрюс / Tige Andrews ... US Marine, Store Customer
Мики Шонесси / Mickey Shaughnessy ... US Marine, Store Customer
Алан Напье / Alan Napier ... Prosecution Attorney

Описание: В зале суда, куда Барбара Лесли приглашена давать показания, она вспоминает события, которые привели к судебному разбирательству. Барбара и ее сестры (Энн, Делия и Эвелин) живут в городе Крайстчерче в Новой Зеландии, в котором большинство жителей мужского пола ушли на войну. Делия, уставшая от одиночества, выходит замуж за вульгарного типа Фила Фрискетта, одного из немногих оставшихся в городе мужчин, а когда на войну отправляют и его, уезжает в другой город, где поселяется в гостинице под своей девичьей фамилией и крутит романы с американскими военными. Барбара приезжает навестить Делию и знакомится с капитаном Джеком Хардингом, разведенным и скептически относящимся к романам на войне. В Крайстчерч отправляют несколько сотен морских пехотинцев, один из которых оскорбительно отзывается о местных девушках. Вскоре в дом к сестрам приходит капитан Ричард Бейтс и приносит извинения от имени морской пехоты. Его визит не оставляет равнодушной Энн - старшую из сестер. Каждая из сестер страдает от одиночества и каждая ищет свой путь к счастью. И однажды поиски одной из них приводят к трагедии...
- Свою первую роль (младшей из сестер - Эвелин) в фильме сыграла Сандра Ди.

Доп. информация:
Огромное спасибо всем причастным к релизу:
рип - Магда,
перевод и озвучивание фильма - Игорь Клушин (хромолка),
работа со звуком и реавторинг исходного DVD- AlekceyR76

Архивы созданы RAR-архиватором с добавлением 3% на восстановление и снабжены sfv-проверочником.
Есть зеркало на яндекс-диск.

Просьба к первому скачавшему отписаться о сохранности архивов на источнике раздачи.

Раздача рассчитана на 2 месяца. На просмотр линка и скачивание 5 дней!
В случае если вы встали в очередь, а затем отказываетесь от скачивания без объяснения причин, возможен отказ в последующих моих раздачах.



Полное имя :Until They Sail.1957.DVDRip.avi
Формат : AVI
Формат/Информация : Audio Video Interleave
Размер файла : 1,59 Гбайт
Продолжительность : 1 ч. 34 м.
Общий поток : 2396 Кбит/сек
Программа кодирования : VirtualDubMod 1.5.4.1 (build 2178/release)
Библиотека кодирования : VirtualDubMod build 2178/release

Видео
Идентификатор : 0
Формат : MPEG-4 Visual
Профиль формата : Advanced Simple@L5
Параметр BVOP формата : 2
Параметр QPel формата : Нет
Параметр GMC формата : Без точки перехода
Параметр матрицы формата : Default (H.263)
Идентификатор кодека : DX50
Идентификатор кодека/Подсказка : DivX 5
Продолжительность : 1 ч. 34 м.
Битрейт : 1998 Кбит/сек
Ширина : 720 пикселей
Высота : 304 пикселя
Соотношение сторон : 2,35:1
Частота кадров : 23,976 кадра/сек
Цветовое пространство : YUV
Субдискретизация насыщенности : 4:2:0
Битовая глубина : 8 бит
Тип развёртки : Прогрессивная
Метод сжатия : С потерями
Бит/(Пиксели*Кадры) : 0.381
Размер потока : 1,32 Гбайт (83%)
Библиотека кодирования : XviD 73

Аудио #1
Идентификатор : 1
Формат : AC-3
Формат/Информация : Audio Coding 3
Расширение режима : CM (complete main)
Параметр Endianness формата : Big
Идентификатор кодека : 2000
Продолжительность : 1 ч. 34 м.
Вид битрейта : Постоянный
Битрейт : 192 Кбит/сек
Каналы : 2 канала
Расположение каналов : Front: L R
Частота : 48,0 КГц
Битовая глубина : 16 бит
Метод сжатия : С потерями
Размер потока : 130 Мбайт (8%)
Выравнивание : Разделение по промежуткам
Продолжительность промежутка : 42 мс. (1,00 видеокадр)
Время предзагрузки промежутка : 500 мс.

Аудио #2
Идентификатор : 2
Формат : AC-3
Формат/Информация : Audio Coding 3
Расширение режима : CM (complete main)
Параметр Endianness формата : Big
Идентификатор кодека : 2000
Продолжительность : 1 ч. 34 м.
Вид битрейта : Постоянный
Битрейт : 192 Кбит/сек
Каналы : 2 канала
Расположение каналов : Front: L R
Частота : 48,0 КГц
Битовая глубина : 16 бит
Метод сжатия : С потерями
Размер потока : 130 Мбайт (8%)
Выравнивание : Разделение по промежуткам
Продолжительность промежутка : 42 мс. (1,00 видеокадр)
Время предзагрузки промежутка : 500 мс.




--------------------
Искусство откладывать деньги сводится к умению сказать “нет” потребительскому обществу.

Скрыть подпись


vjub58
№2 Отправлено: 15.01.2017 - 21:34


Практикующий эсквайр

Группа: Аксакалы
Регистрация: 6.12.2005
Сообщений: 4467
Обитает:
Последний раз был:
cегодня в 17:59




Спасибо, все ОК. (mail.ru) pozdrav_buket.gif
Top
surzhoks
№3 Отправлено: 16.01.2017 - 04:40


Старожил

Группа: Аксакалы
Регистрация: 17.03.2008
Сообщений: 919
Обитает:
Последний раз был:
26.03.2017 - 19:44




vjub58, спасибо за сообщение.


--------------------
Искусство откладывать деньги сводится к умению сказать “нет” потребительскому обществу.

Скрыть подпись
Top
1 человек просматривает эту тему (1 гость)
« Предыдущая тема | Зарубежные фильмы | Следующая тема »


 



[Script Execution time: 0,0218]   [23 queries used]   [GZIP enabled]