Заходят многие - остаются лучшие!
Здравствуйте Гость ( Вход | Регистрация ) Выслать повторно письмо для активации
Вход
Ваше имя Пароль Забыли пароль?
Запомнить Вас?
Войти скрытым?



 Правила раздела Новые сообщения раздела  


 

 Ярмарка штата / State Fair (1933), Джанет Гейнор, Уилл Роджерс, Лью Эйрз / драма, мелодрама, комедия
surzhoks
  №1 Отправлено: 22.04.2018 - 18:52


Живёт здесь

Группа: Аксакалы
Регистрация: 17.03.2008
Сообщений: 1070
Обитает:
Последний раз был:
вчера в 21:43




Ярмарка штата / State Fair


Страна: США
Студия: Fox Film Corporation
Жанр: драма, мелодрама, комедия
Год выпуска: 1933
Продолжительность: 01:36:46
Режиссер: Генри Кинг / Henry King
Композитор: Луис Де Франческо / Louis De Francesco
Субтитры: русские (перевод - karlivanovich)
В ролях:
Джанет Гейнор / Janet Gaynor ... Margy Frake
Уилл Роджерс / Will Rogers ... Abel Frake
Лью Эйрз / Lew Ayres ... Pat Gilbert
Салли Эйлерс / Sally Eilers ... Emily Joyce
Норман Фостер / Norman Foster ... Wayne Frake
Луиз Дрессер / Louise Dresser ... Melissa Frake
Фрэнк Крэвен / Frank Craven ... Storekeeper
Виктор Джори / Victor Jory ... Hoop Toss Barker
Фрэнк Мелтон / Frank Melton ... Harry Ware
Эрвилль Алдерсон / Erville Alderson ... Martin - Hog Breeder, в титрах не указан

Описание: Семья Фрэйков отправилась на ярмарку в Айове. И пока отец с матерью принимали участие в различных соревнованиях и конкурсах, их сын с дочерью нашли свои вторые половинки. Но надолго ли хватит их любви?
Это первая экранизация новеллы Филипа Стонга.

Оскар, 1934 год
Номинации (2):- Лучший фильм
- Лучший адаптированный сценарий

Доп. информация:
Огромное спасибо всем причастным к релизу:
рип - Магда,
перевод фильма на русский - karlivanovich,
озвучивание фильма (по русским субтитрам) - Игорь Клушин (хромолка),
работа со звуком - AlekceyR76,
финансовая поддержка перевода фильма:
Магда, Lafajet, jasenka, yanaelisa, борюська, surzhoks, voostorg, leoder, елена 22, Mc-Nabbs, sindzi, Lars134


Архивы созданы RAR-архиватором с добавлением 3% на восстановление и снабжены sfv-проверочником.
Просьба к первому скачавшему отписаться о сохранности архивов на источнике раздачи.

Раздача рассчитана на 2 месяца. На просмотр линка и скачивание 5 дней!
В случае если вы встали в очередь, а затем отказываетесь от скачивания без объяснения причин, возможен отказ в последующих моих раздачах.



Полное имя :State Fair.1933.avi
Формат : AVI
Формат/Информация : Audio Video Interleave
Размер файла : 1,59 Гбайт
Продолжительность : 1 ч. 36 м.
Общий поток : 2350 Кбит/сек
Программа кодирования : VirtualDubMod 1.5.4.1 (build 2178/release)
Библиотека кодирования : VirtualDubMod build 2178/release

Видео
Идентификатор : 0
Формат : MPEG-4 Visual
Профиль формата : Advanced Simple@L5
Параметр BVOP формата : 2
Параметр QPel формата : Нет
Параметр GMC формата : Без точки перехода
Параметр матрицы формата : Default (H.263)
Идентификатор кодека : DX50
Идентификатор кодека/Подсказка : DivX 5
Продолжительность : 1 ч. 36 м.
Битрейт : 1952 Кбит/сек
Ширина : 624 пикселя
Высота : 480 пикселей
Соотношение сторон : 4:3
Частота кадров : 23,976 кадра/сек
Цветовое пространство : YUV
Субдискретизация насыщенности : 4:2:0
Битовая глубина : 8 бит
Тип развёртки : Прогрессивная
Метод сжатия : С потерями
Бит/(Пиксели*Кадры) : 0.272
Размер потока : 1,32 Гбайт (83%)
Библиотека кодирования : XviD 73

Аудио #1
Идентификатор : 1
Формат : AC-3
Формат/Информация : Audio Coding 3
Расширение режима : CM (complete main)
Параметр Endianness формата : Big
Идентификатор кодека : 2000
Продолжительность : 1 ч. 36 м.
Вид битрейта : Постоянный
Битрейт : 192 Кбит/сек
Каналы : 2 канала
Расположение каналов : Front: L R
Частота : 48,0 КГц
Битовая глубина : 16 бит
Метод сжатия : С потерями
Размер потока : 133 Мбайт (8%)
Выравнивание : Разделение по промежуткам
Продолжительность промежутка : 42 мс. (1,00 видеокадр)
Время предзагрузки промежутка : 500 мс.

Аудио #2
Идентификатор : 2
Формат : AC-3
Формат/Информация : Audio Coding 3
Расширение режима : CM (complete main)
Параметр Endianness формата : Big
Идентификатор кодека : 2000
Продолжительность : 1 ч. 36 м.
Вид битрейта : Постоянный
Битрейт : 192 Кбит/сек
Каналы : 2 канала
Расположение каналов : Front: L R
Частота : 48,0 КГц
Битовая глубина : 16 бит
Метод сжатия : С потерями
Размер потока : 133 Мбайт (8%)
Выравнивание : Разделение по промежуткам
Продолжительность промежутка : 42 мс. (1,00 видеокадр)
Время предзагрузки промежутка : 500 мс.




OldLady
№2 Отправлено: 22.04.2018 - 20:48


секрет

Группа: Аксакалы
Регистрация: 26.03.2006
Сообщений: 3361
Последний раз был:
cегодня в 11:18
19.09-23.09




Все в порядке, спасибо!
Top
1 человек просматривает эту тему (1 гость)
« Предыдущая тема | Зарубежные фильмы | Следующая тема »


 



[Script Execution time: 0,0653]   [22 queries used]   [GZIP enabled]