Заходят многие - остаются лучшие!
Здравствуйте Гость ( Вход | Регистрация ) Выслать повторно письмо для активации
Вход
Ваше имя Пароль Забыли пароль?
Запомнить Вас?
Войти скрытым?



Новые сообщения раздела  

 

 Пиковая дама (1916) Немой, Драма,экранизация;Реж.-Я.Протазанов;Роли-И.Мозжухин,В.Орлова
SanSan48
  №1 Отправлено: 13.10.2014 - 16:12


"Спартак" - ЧЕМПИОН!!!

Группа: Пользователи
Регистрация: 28.12.2009
Сообщений: 1909
Обитает:
Последний раз был:
cегодня в 08:12




Пиковая дама (1916) Немой



Название: Пиковая дама
Жанр: драма, экранизация, немой
Выпущено: Россия, Товарищество И. Ермольева
Год выпуска: 1916
Премьера (Россия): 19 апреля 1916
Премьера (мир): 18 ноября 1917 (США)
Продюсер: Иосиф Ермольев
Сценаристы: Фёдор Оцеп, Яков Протазанов
Оператор: Евгений Славинский
Композитор: Рафаль Розмус
Художники: Владимир Баллюзек, С.Лилиенберг, Валерий Пшибытневский

Режиссер: Яков Протазанов

В ролях:
Иван Мозжухин … Герман
Вера Орлова … Лиза
Елизавета Шебуева … графиня
Георгий Азагаров
Тамара Дуван … графиня в молодости
Поликарп Павлов … муж графини
Николай Панов … граф Сен-Жермен

Описание: По одноименной повести Александра Сергеевича Пушкина.
За карточной игрой один из офицеров рассказывает друзьям о своей престарелой родственнице-графине, которой некогда граф Сен-Жермен открыл тайну трёх верных карт, выигрывающих кряду. Германн, который никогда не садится за игровой стол из боязни проиграть, загорается идеей выведать у графини эту тайну. Для этого он знакомится с племянницей графини Лизой. Девушка влюбляется в него и даёт ему ключ от дома. Ночью Германн проникает в дом графини, чтобы выпытать у старухи тайну трёх карт. Графиня отказывается отвечать и умирает.
Ночью сходящему с ума Германну является призрак графини и называет «верные» карты — это тройка, семёрка и туз.
Германн ставит на кон всё своё состояние, выигрывает первые две ставки на тройке и семёрке, но затем передёргивается, открывает вместо туза пиковую даму и сходит с ума...

Дополнительная информация:
Релиз:

Автор рипа: pmv

Большое спасибо за:
- исходник DVB-S (Запись потока со спутника с ТК «Россия-Культура») предоставлен ItarTass

К фильму "Пиковая дама" отдельно прилагается вступительная передача из серии «Шедевры старого кино» (ГТРК «Культура», 2014), рассказывающая о создании фильма и о легендарном русском актёре немого кино Иване Мозжухине. Ведущий передачи - историк кино Наталья Нусинова.

Фильм озвучен (музыкальное сопровождение) студией художественного кинопоказа ГТРК «Культура» в 2002 году.

Размер дополнительного файла: 189.50 Mb ( 198 707 200 bytes )
Продолжительность: 00:12:27.000 (18675 frames)


ДАННЫЙ РИП НЕ ПРЕДНАЗНАЧЕН ДЛЯ РАЗДАЧИ НА РУТРЕКЕРЕ

IMDb = 6,4/10 from 251 users - http://www.imdb.com/title/tt0007183/
Кинопоиск = 7.468 (429) - http://www.kinopoisk.ru/film/40909/

Параметры файла:
Имя файла: Пиковая дама (1916).avi
Качество видео: SAT
Формат видео: AVI
Размер: 918.18 Mb ( 962 780 022 bytes )
Продолжительность: 00:50:42.000 (76050 frames)
Видео: 720x544 (1.32:1), 25 fps, XviD build 73 ~2394 kbps avg, 0.24 bit/pixel
Аудио: 48 kHz, MPEG Layer 3, 2 ch, ~128.00 kbps avg



General
Complete name : D:\torrents\пиковая дама (1916).avi
Format : AVI
Format/Info : Audio Video Interleave
File size : 918 MiB
Duration : 50mn 42s
Overall bit rate : 2 532 Kbps
Writing library : VirtualDub build 35560/release

Video
ID : 0
Format : MPEG-4 Visual
Format profile : Advanced Simple@L5
Format settings, BVOP : Yes
Format settings, QPel : No
Format settings, GMC : No warppoints
Format settings, Matrix : Default (H.263)
Codec ID : XVID
Codec ID/Hint : XviD
Duration : 50mn 42s
Bit rate : 2 394 Kbps
Width : 720 pixels
Height : 544 pixels
Display aspect ratio : 4:3
Frame rate : 25.000 fps
Resolution : 8 bits
Colorimetry : 4:2:0
Scan type : Progressive
Bits/(Pixel*Frame) : 0.245
Stream size : 868 MiB (95%)
Writing library : XviD 73

Audio
ID : 1
Format : MPEG Audio
Format version : Version 1
Format profile : Layer 3
Format_Settings_Mode : Joint stereo
Codec ID : 55
Codec ID/Hint : MP3
Duration : 50mn 42s
Bit rate mode : Constant
Bit rate : 128 Kbps
Channel(s) : 2 channels
Sampling rate : 48.0 KHz
Stream size : 46.4 MiB (5%)
Alignment : Split accross interleaves
Interleave, duration : 40 ms (1.00 video frame)
Interleave, preload duration : 500 ms







Это сообщение отредактировал SanSan48 - 13.10.2014 - 16:21


--------------------
"Спартак" - ЧЕМПИОН!!!

Скрыть подпись


Nadejdaenergia
№2 Отправлено: 13.10.2014 - 17:10


Когда всё плохое уходит, остаётся только хорошее.

Группа: Модераторы
Регистрация: 21.03.2012
Сообщений: 6189
Обитает:
Последний раз был:
cегодня в 07:36
У МЕНЯ РОДИЛСЯ ВНУК !!!




С архивами полный порядок ! И фильм , и вступительная передача скачались-распаковались без проблем. Спасибо !


--------------------


1. Только надеяться - мало толка.
И все-таки, разумеется,
надо надеяться, но только
НЕ ТОЛЬКО надеяться.

2. Мудрость простейших истин признав,
Повесь на стену себе
Знак сокровенный, таинственный Знак
ВТВ.
И если к вершине долгий путь
Стал непосильным бременем –
Вспомни, прежде чем повернуть:
Всё Требует Времени…


Piet Hein Jr.

Скрыть подпись
Top
SanSan48
№3 Отправлено: 13.10.2014 - 17:19


"Спартак" - ЧЕМПИОН!!!

Группа: Пользователи
Регистрация: 28.12.2009
Сообщений: 1909
Обитает:
Последний раз был:
cегодня в 08:12




Цитата
( Nadejdaenergia @ 13.10.2014 - 17:10)
С архивами полный порядок ! И фильм , и вступительная передача скачались-распаковались без проблем. Спасибо !

Nadejdaenergia, Благодарю за информацию!


--------------------
"Спартак" - ЧЕМПИОН!!!

Скрыть подпись
Top
1 человек просматривает эту тему (1 гость)
« Предыдущая тема | Немые фильмы | Следующая тема »


 



[Script Execution time: 0,0419]   [24 queries used]   [GZIP enabled]