Заходят многие - остаются лучшие!
Здравствуйте Гость ( Вход | Регистрация ) Выслать повторно письмо для активации
Вход
Ваше имя Пароль Забыли пароль?
Запомнить Вас?
Войти скрытым?



Новые сообщения раздела  

 

 Белый орёл (1928) Немое кино, Раритетный фильм;Реж.-Я.Протазанов;Роли-В.Качалов,Вс.Мейерхольд,А.Стэн
SanSan48
  №1 Отправлено: 26.10.2014 - 15:33


"Спартак" - ЧЕМПИОН!!!

Группа: Пользователи
Регистрация: 28.12.2009
Сообщений: 1964
Обитает:
Последний раз был:
cегодня в 19:07




Белый орёл (1928) Немой



Жанр: Драма, экранизация, немое кино
Страна: СССР, Межрабпом-фильм
Год выпуска: 1928
Премьера (СССР): 9 октября 1928
Премьера (мир): 11 февраля 1929 (США, Нью-Йорк )
Сценаристы: Олег Леонидов, Яков Протазанов, Яков Уринов
Оператор: Петр Ермолов
Художник: Исаак Рабинович

Режиссёр: Яков Протазанов

В ролях:
Василий Качалов … губернатор
Анна Стэн … гувернантка
Всеволод Мейерхольд … cановник
Иван Чувелёв … шпик-провокатор
Андрей Петровский … полицмейстер
Пётр Репнин … архиерей
Елена Волконская … губернаторша
Михаил Жаров … чиновник
Юрий Васильчиков … чиновник
Александр Громов … революционер
Александр Чистяков … эпизод

Описание: По рассказу Леонида Андреева «Губернатор».
1905 год. В одном из промышленных городов России бастуют рабочие. В окна губернаторского дома летят камни. Губернатор отдает приказ открыть огонь, в результате чего погибают трое детей. С этого дня угрызения совести не дают ему покоя…

Дополнительная информация:
Релиз:

Автор рипа: pmv

Большое спасибо за:
- исходник DVB-S (Запись потока со спутника с ТК «Россия-Культура») предоставлен ItarTass

Фильм озвучен Студией кинопоказа ГТРК «Культура» в 2014 году.
Использована музыка композиторов: Сергея Рахманинова, Густава Малера, Луиджи Керубини, Джузеппе Верди, Эрика Сати, Николая Митрофанова.
В данной раздаче представлена оригинальная версия фильма, транслировавшаяся по ТК «Россия-Культура» 24 октября 2014 года.


Известна ещё одна версия этого фильма, восстановленого и озвученного (музыкальное сопровождение, композитор: Тарас Буевский) в 1997 году (РТР-Фильм). Записано тогда же с эфира на канале «РТР» на VHS и в формате DVD5 раздаваемого на Рутрекере. Это «реставрированная» версия фильма, все титры этого фильма – новоделы. Есть DVDrip, сделанный pmv. Если будут желающие – любители раритетного кино, можно добавить этот рип в раздачу. Просьба высказывать свои пожелания.


Именно его, губернатора, «наилучшего представителя царской власти», ставит режиссёр в центр и отдаёт эту роль актеру исключительного обаяния, глубочайшей интеллигентности, мхатовцу Василию Ивановичу Качалову. Наконец, он дает своё название фильму (по названию одной из высших наград Российской Империи - Ордена Белого орла), вводя в него ненавистный эпохе цвет — белый. Смелость поступка следует соотнести с именем и судьбой постановщика. Один из крупнейших режиссёров дореволюционного кино, в недалёком прошлом сам эмигрант, Яков Александрович Протазанов задумал фильм об обреченности старого мира, который собирался показать, не впадая в вульгарно-социологический, карикатурный тон. На этом пути он вступил в борьбу с Главреперткомом, сразу запретившим как первый, так и второй варианты сценария. Тогда вместе с О.Леонидовым и Я.Уриновым Протазанов пишет следующий —-и добивается разрешения на постановку.
Лучшее и собственно протазановское в фильме - выбор актёров и творческое общение с ними в процессе съёмок. Губернатор Нижнего Новгорода, ставший убийцей женщин и детей, пришедших к нему в депутации рабочих, психологически сложный и убедительный образ, созданный с театральной глубиной, но без театральности. Это первая и единственная кинороль Качалова. А рядом - Всеволод Мейерхольд в роли сенатора, награждающего губернатора «за подвиг» Орденом Белого орла. Он создаёт не характер, а маску жестокого, циничного царедворца. Эстетика МХТ и «Театрального октября» не мешают одна другой в руках в высшей степени «актёрского» режиссёра Протазанова.
Для популярнейшей кинозвезды тех лет Анны Стэн специально была написана роль гувернантки. А вокруг - массовка доживающих свой век людей «проклятого прошлого»… Среди них даже настоящий губернатор, кажется, из Тамбова, немедленно взявший на себя роль консультанта. Сегодня этот пёстрый человеческий мир таких разных актёров и неактёров — бесценный документ времени и искусства. (Взято с сайта КИНО-ТЕАТР (отредактировано AVV_UA)).

ДАННЫЙ РИП НЕ ПРЕДНАЗНАЧЕН ДЛЯ РАЗДАЧИ НА РУТРЕКЕРЕ

IMDb = 6,6/10 from 21 users - http://www.imdb.com/title/tt0018686/
Кинопоиск = 7.067 (65) - http://www.kinopoisk.ru/film/46071/

Параметры файла:
Имя файла: Белый орёл (1928).avi
Качество видео: SAT
Формат видео: AVI
Размер: 1128.74 Mb ( 1 183 568 934 bytes )
Продолжительность: 01:07:34.399 (101360 frames)
Видео: 720x544 (1.32:1), 25 fps, XviD build 73 ~2197 kbps avg, 0.22 bit/pixel
Аудио: 48 kHz, MPEG Layer 3, 2 ch, ~128.00 kbps avg



General
Complete name : D:\torrents\белый орёл (1928).avi
Format : AVI
Format/Info : Audio Video Interleave
File size : 1.10 GiB
Duration : 1h 7mn
Overall bit rate : 2 335 Kbps
Writing library : VirtualDub build 35576/release

Video
ID : 0
Format : MPEG-4 Visual
Format profile : Advanced Simple@L5
Format settings, BVOP : Yes
Format settings, QPel : No
Format settings, GMC : No warppoints
Format settings, Matrix : Default (H.263)
Codec ID : XVID
Codec ID/Hint : XviD
Duration : 1h 7mn
Bit rate : 2 198 Kbps
Width : 720 pixels
Height : 544 pixels
Display aspect ratio : 4:3
Frame rate : 25.000 fps
Resolution : 8 bits
Colorimetry : 4:2:0
Scan type : Progressive
Bits/(Pixel*Frame) : 0.224
Stream size : 1.04 GiB (94%)
Writing library : XviD 73

Audio
ID : 1
Format : MPEG Audio
Format version : Version 1
Format profile : Layer 3
Format_Settings_Mode : Joint stereo
Codec ID : 55
Codec ID/Hint : MP3
Duration : 1h 7mn
Bit rate mode : Constant
Bit rate : 128 Kbps
Channel(s) : 2 channels
Sampling rate : 48.0 KHz
Stream size : 61.9 MiB (5%)
Alignment : Split accross interleaves
Interleave, duration : 40 ms (1.00 video frame)
Interleave, preload duration : 500 ms







Это сообщение отредактировал SanSan48 - 26.10.2014 - 17:59


--------------------
"Спартак" - ЧЕМПИОН!!!

Скрыть подпись
kyo
№2 Отправлено: 26.10.2014 - 17:22


Живёт здесь

Группа: Потребители
Регистрация: 21.07.2007
Сообщений: 2041
Обитает:
Последний раз был:
cегодня в 20:08




Архивы в порядке, спасибо !
Top
SanSan48
№3 Отправлено: 26.10.2014 - 17:58


"Спартак" - ЧЕМПИОН!!!

Группа: Пользователи
Регистрация: 28.12.2009
Сообщений: 1964
Обитает:
Последний раз был:
cегодня в 19:07




Цитата
( kyo @ 26.10.2014 - 17:22)
Архивы в порядке, спасибо !

kyo, Благодарю за сообщение!


--------------------
"Спартак" - ЧЕМПИОН!!!

Скрыть подпись
Top
1 человек просматривает эту тему (1 гость)
« Предыдущая тема | Немые фильмы | Следующая тема »


 



[Script Execution time: 0,0671]   [24 queries used]   [GZIP enabled]