Заходят многие - остаются лучшие!
Здравствуйте Гость ( Вход | Регистрация ) Выслать повторно письмо для активации
Вход
Ваше имя Пароль Забыли пароль?
Запомнить Вас?
Войти скрытым?



 Правила раздела Новые сообщения раздела  


 

 Белая акация (1958), Фильм-оперетта;Реж.-Г.Натансон;Роли-М.Водяной,И.Иванова,Е.Дембская
SanSan48
  №1 Отправлено: 17.11.2014 - 15:07


"Спартак" - ЧЕМПИОН!!!

Группа: Пользователи
Регистрация: 28.12.2009
Сообщений: 1905
Обитает:
Последний раз был:
cегодня в 09:14




Белая акация (1958)



Предыдущие раздачи:
10.09.2010 (DVDrip), 24.07.2008 (DVDrip), 22.04.2006 (VHSrip)

Название: Белая акация
Жанр: фильм-оперетта, комедия, музыкальный
Выпущено: СССР, Молдова-филм (по заказу Центральной студии телевидения)
Год выпуска: 1958
Премьера (СССР): 8 февраля 1958 (ТВ), 12 мая 1958 (кино)
Сценаристы: Владимир Масс, Михаил Червинский
Оператор: Яков Кулиш
Композитор: Исаак Дунаевский
Художники: Василий Зачиняев, Л.Файленбоген, А.Сааджан
Монтажёр: В.Дзык, Н.Бурлаку

Режиссер: Георгий Натансон

В ролях:
Идалия Иванова … Тоня Чумакова, Тося, радист на базе флотилии "Салют"
Александр Стародуб … Костя Куприянов, капитан гарпунёров судна "Салют-8"
Евгения Дембская … Лариса Штепенко, эгоистичная ветреная девица, невеста Кости
Михаил Водяной … Яшка-"Буксир", Яков Наконечников, делец, кладовщик на базе
Н.Кочкин … Пётр Тимофеевич Чумаков, гарпунёр-наставник, дядя Тони
Валентина Франчук … Ольга Ивановна Чумакова
Муза Крепкогорская … Катя, подруга Тони
М.Дашевский … Кораблёв Сергей Сергеевич, муж Ольги Ивановны
Шева Фингерова … Серафима Степановна, тётя Сима, буфетчица на базе
Олег Шаповалов … Лёша, моряк
Б.Никитин … Саша, моряк
А.Латров … капитан-директор флотилии
Виктор Алоин … Женя Моргунов, помощник режиссера, киноактёр (в титрах А.Алоин)
Н.Сивченко … Апп, режиссёр-кинооператор кино (о встрече китобоев)

О фильме: По одноименной оперетте И.Дунаевского. Фильм-оперетта снят на основе спектакля, поставленного в Одесском театре музыкальной комедии режиссёром Изакином Гриншпуном.
Китобойная флотилия уходит в далёкое плавание на промысел, а дома моряков всегда ждут родные, любимые, друзья. Вот и теперь они провожают китобоев. Капитан флотилии, красавец Костя Куприянов, оставляет на берегу невесту Ларису, девицу довольно эффектную внешне, но пустую, хитрую и пошлую по существу...

Дополнительная информация: Релиз:

Автор рипа: pmv

Исходник DVD5 от yan.marie , за что ей большое Спасибо!

Звук с DVD, с неприемлемыми для оперетты шумами, заменен на качественную обработку этой фонограммы от ash7, которому выражаем Благодарность.

Кинопоиск = 7.542 (51) - http://www.kinopoisk.ru/film/419509]

Интересно:
Как написала критик Майя Крылова: «Белая акация» – не хроника перевыполнения планов и перевоспитания тунеядцев, но история о любви и счастье.
Действие происходит в начале 50-х годов в Одессе и на китобойной базе «Салют».
«Белая акация» насыщена яркой, увлекательной музыкой, хотя, в отличие от предшествующих оперетт, лишена развернутых финалов. В этом произведении Дунаевский отходит от принципов строения классической оперетты с развитой музыкальной драматургией. Он стремился создать лёгкую, весёлую, красочную лирическую комедию и эту задачу выполнил превосходно.
Большим своеобразием отличается либретто — остроумное, с ярко очерченными образами, хорошо найденной обстановкой действия. Мы не видим здесь привычных амплуа. Перед зрителями — живые люди, которые трудятся, любят, страдают, веселятся. Это смелые люди, влюбленные в море, в свою нелегкую профессию, в родной город. На этой основе композитор и создал оперетту, пронизанную светом, радостью.
Дунаевский работал над музыкой «Белой акации» весной и летом 1955 года. Первыми были написаны центральные в музыкальной драматургии «Песня об акации» и «Песня об Одессе». Закончить свое произведение композитор не успел: он скончался 25 июля 1955 года, а через четыре месяца состоялась премьера его лебединой песни. По наброскам Дунаевского музыку закончил Кирилл Молчанов."



ТЕКСТ ПЕСНИ
(Музыка: Исаак Дунаевский; слова: В.Масс и М.Червинский)

Когда я пою о широком просторе,
О море, зовущем в чужие края,
О ласковом море,
О счастье и горе,
Пою о тебе я, Одесса моя!

Припев:

Я вижу везде
Твои ясные зори, Одесса,
Со мною везде
Твое море и небо, Одесса,
Ты в сердце моем,
Ты всюду со мной,
Одесса, мой город родной!

Когда я пою о любви без предела,
О людях, умеющих верить и ждать,
О гроздьях душистых
Акации белой,
Тебе я спешу свою песню отдать!

Припев.

Когда я пою о заветных желаньях,
Что с детства лелеем мы, в сердце тая,
О долгих разлуках,
О кратких свиданьях,
Пою о тебе я, Одесса моя!

Прослушать песню в исполнении Татьяны Шмыги

Параметры файла:
Имя файла: Белая акация (1958).avi
Качество видео: VHS
Формат видео: AVI
Размер: 1300.36 Mb ( 1 363 529 934 bytes )
Продолжительность: 01:25:05.319 (127633 frames)
Видео: 720x544 (1.32:1), 25 fps, XviD build 73 ~1998 kbps avg, 0.20 bit/pixel
Аудио: 48 kHz, MPEG Layer 3, 2 ch, ~128.00 kbps avg


[Каждый 2-ой кадр из двух сравниваемых - кадр рипа из данной раздачи (720 х 544).]

С предыдущей раздачей на ФЕНИКСе от 10.09.2010 (720 х 560):







Со «свежим» рипом на Кинозале от 10.11.2014 (720 х 536):







На картинке с Кинозала четко видны артефакты, мусор и гребёнка. К тому же высота не кратна 16.



General
Complete name : D:\torrents\Белая акация (1958).avi
Format : AVI
Format/Info : Audio Video Interleave
File size : 1.27 GiB
Duration : 1h 25mn
Overall bit rate : 2 137 Kbps
Writing library : VirtualDub build 35576/release

Video
ID : 0
Format : MPEG-4 Visual
Format profile : Advanced Simple@L5
Format settings, BVOP : Yes
Format settings, QPel : No
Format settings, GMC : No warppoints
Format settings, Matrix : Default (H.263)
Codec ID : XVID
Codec ID/Hint : XviD
Duration : 1h 25mn
Bit rate : 1 999 Kbps
Width : 720 pixels
Height : 544 pixels
Display aspect ratio : 4:3
Frame rate : 25.000 fps
Resolution : 8 bits
Colorimetry : 4:2:0
Scan type : Progressive
Bits/(Pixel*Frame) : 0.204
Stream size : 1.19 GiB (94%)
Writing library : XviD 73

Audio
ID : 1
Format : MPEG Audio
Format version : Version 1
Format profile : Layer 3
Format_Settings_Mode : Joint stereo
Format_Settings_ModeExtension : MS Stereo
Codec ID : 55
Codec ID/Hint : MP3
Duration : 1h 25mn
Bit rate mode : Constant
Bit rate : 128 Kbps
Channel(s) : 2 channels
Sampling rate : 48.0 KHz
Video delay : 100ms
Stream size : 77.9 MiB (6%)
Alignment : Split accross interleaves
Interleave, duration : 40 ms (1.00 video frame)
Interleave, preload duration : 500 ms



Перезаливает для архива: dmitry2264




--------------------
"Спартак" - ЧЕМПИОН!!!

Скрыть подпись
bondsun
№2 Отправлено: 17.11.2014 - 16:06


кучерявый

Группа: Потребители
Регистрация: 17.08.2009
Сообщений: 4385
Обитает:
Последний раз был:
cегодня в 08:33





Благодарствую, архивы в порядке.


--------------------
Пусть рушится мир весь вокруг, пополам,
Пусть часто фортуна не прёт.
Не кофе нас должен бодрить по утрам,
А тот, кто его подаёт.

happy.gif

Скрыть подпись
Top
SanSan48
№3 Отправлено: 17.11.2014 - 16:24


"Спартак" - ЧЕМПИОН!!!

Группа: Пользователи
Регистрация: 28.12.2009
Сообщений: 1905
Обитает:
Последний раз был:
cегодня в 09:14




Цитата
( bondsun @ 17.11.2014 - 16:06)
Благодарствую, архивы в порядке.

bondsun, Спасибо за сообщение!


--------------------
"Спартак" - ЧЕМПИОН!!!

Скрыть подпись
Top
1 человек просматривает эту тему (1 гость)
« Предыдущая тема | Отечественное кино | Следующая тема »


 



[Script Execution time: 0,0281]   [24 queries used]   [GZIP enabled]