Заходят многие - остаются лучшие!
Здравствуйте Гость ( Вход | Регистрация ) Выслать повторно письмо для активации
Вход
Ваше имя Пароль Забыли пароль?
Запомнить Вас?
Войти скрытым?



Новые сообщения раздела  

 

 Библейский сюжет. Илья Репин, Василий Поленов. Дочь Иаира (2003), Авторская программа Дмитрия Менделеева
Alevtina
  №1 Отправлено: 22.04.2017 - 07:38


Время камни собирать...

Группа: Аксакалы
Регистрация: 12.02.2009
Сообщений: 5497
Обитает:
Последний раз был:
вчера в 22:09




Библейский сюжет. Илья Репин, Василий Поленов. "Дочь Иаира"



В рамках проекта -

Год выпуска: 2003

Страна: Россия

Режиссер: Ольга Жукова

Студия: ООО Студия "Неофит"

Субтитры: нет

Автор и ведущий: Дмитрий Менделеев


Обращение великих художников к Библии никогда не заканчивалось только иллюстрацией того или иного сюжета Вечной Книги. Оно всегда предполагало личное осмысление. Художник выбирал библейскую историю, чтобы рассказать о себе, о своем времени, чтобы глубже постичь смысл происходящего.
Язык образов Святого Писания был универсален и понятен для всех. Но теперь для нас этот язык наполовину забыт. Мы уже не можем так ясно, с листа, читать всё, что говорили в своих произведениях художники, поэты, композиторы и писатели прошлого. Мы более опираемся на чувственное восприятие, которое все же является только частью замысла, его внешней стороной. В программе "Библейский сюжет" делается попытка соединить "прекрасного разрозненные части", по-другому взглянуть на всемирно известные произведения искусства, рассказать о судьбе их создателей.


Описание:

В 1871 году для выпускной конкурсной работы в Петербургской академии художеств была предложена тема «Воскрешение дочери Иаира». Победитель награждался Большой золотой медалью и правом шесть лет жить за границей на казенный счет. Главными претендентами были два товарища: Илья Репин и Василий Поленов...


За постер благодарю bornik! Спасибо!


Media-info:


Format : AVI
Format/Info : Audio Video Interleave
File size : 389 MiB
Duration : 25mn 38s
Overall bit rate : 2 121 Kbps
Writing application : VirtualDubMod 1.5.10.2 (build 2540/release)
Writing library : VirtualDubMod build 2540/release

Video
ID : 0
Format : MPEG-4 Visual
Format profile : Advanced Simple@L5
Format settings, BVOP : 2
Format settings, QPel : No
Format settings, GMC : No warppoints
Format settings, Matrix : Default (H.263)
Muxing mode : Packed bitstream
Codec ID : XVID
Codec ID/Hint : XviD
Duration : 25mn 38s
Bit rate : 1 984 Kbps
Width : 720 pixels
Height : 544 pixels
Display aspect ratio : 4:3
Frame rate : 25.000 fps
Color space : YUV
Chroma subsampling : 4:2:0
Bit depth : 8 bits
Scan type : Progressive
Compression mode : Lossy
Bits/(Pixel*Frame) : 0.203
Stream size : 364 MiB (94%)
Writing library : XviD 65

Audio
ID : 1
Format : MPEG Audio
Format version : Version 1
Format profile : Layer 3
Mode : Joint stereo
Mode extension : MS Stereo
Codec ID : 55
Codec ID/Hint : MP3
Duration : 25mn 38s
Bit rate mode : Constant
Bit rate : 128 Kbps
Channel(s) : 2 channels
Sampling rate : 48.0 KHz
Compression mode : Lossy
Stream size : 23.5 MiB (6%)
Alignment : Aligned on interleaves
Interleave, duration : 40 ms (1.00 video frame)
Interleave, preload duration : 504 ms
Writing library : LAME3.98r
Encoding settings : -m j -V 4 -q 3 -lowpass 17 -b 128


Скриншоты:






Записались на автоматическое включение в очередь:
baziss, Snara, valbar, vyur, RussianGuy, Marrina, медикус, mosk7, Nadejdaenergia, ILIA, Masjanja, ajlinn, oldfanat, bondsun, mikhailk, medandrey, oster47, Tanjusha, andrusenko, rittaa.

Если вы хотите, чтобы вас автоматически ставили в очередь на следующие выпуски данного цикла, - сообщите об этом в теме последней раздачи.




Это сообщение отредактировал Alevtina - 25.04.2017 - 18:23


--------------------

Прохожие, купите Доброту!
Лишь за улыбку! Разве ж это много!
Исполните заветную мечту…
И хоть одну из Заповедей Бога!
Снимите маски «гордых» и «крутых»
Купите, хоть немножечко, Терпенья.
И ощутите сердцем, хоть на миг,
Всю прелесть и восторг благодаренья!
Сегодня, АКЦИЯ на Совесть и Любовь!
Притормозите «хаммер» свой, иль «буммер»!
Купите! И волнуйте свою кровь!
От этого ещё никто не умер!


Скрыть подпись


kyo
№2 Отправлено: 22.04.2017 - 08:09


Живёт здесь

Группа: Потребители
Регистрация: 21.07.2007
Сообщений: 1705
Обитает:
На форуме с:
cегодня в 16:49




Архивы в порядке, спасибо !
Top
Alevtina
№3 Отправлено: 22.04.2017 - 14:18


Время камни собирать...

Группа: Аксакалы
Регистрация: 12.02.2009
Сообщений: 5497
Обитает:
Последний раз был:
вчера в 22:09




kyo, благодарю за весть!


--------------------

Прохожие, купите Доброту!
Лишь за улыбку! Разве ж это много!
Исполните заветную мечту…
И хоть одну из Заповедей Бога!
Снимите маски «гордых» и «крутых»
Купите, хоть немножечко, Терпенья.
И ощутите сердцем, хоть на миг,
Всю прелесть и восторг благодаренья!
Сегодня, АКЦИЯ на Совесть и Любовь!
Притормозите «хаммер» свой, иль «буммер»!
Купите! И волнуйте свою кровь!
От этого ещё никто не умер!


Скрыть подпись
Top
Masjanja
№4 Отправлено: 29.04.2017 - 09:37


Старожил

Группа: Потребители
Регистрация: 16.03.2010
Сообщений: 590
Обитает:
Последний раз был:
29.04.2017 - 19:01




Прошусь в очередь. Спасибо заранее!
Top
Alevtina
№5 Отправлено: 7.05.2017 - 20:57


Время камни собирать...

Группа: Аксакалы
Регистрация: 12.02.2009
Сообщений: 5497
Обитает:
Последний раз был:
вчера в 22:09




Masjanja, ок!


--------------------

Прохожие, купите Доброту!
Лишь за улыбку! Разве ж это много!
Исполните заветную мечту…
И хоть одну из Заповедей Бога!
Снимите маски «гордых» и «крутых»
Купите, хоть немножечко, Терпенья.
И ощутите сердцем, хоть на миг,
Всю прелесть и восторг благодаренья!
Сегодня, АКЦИЯ на Совесть и Любовь!
Притормозите «хаммер» свой, иль «буммер»!
Купите! И волнуйте свою кровь!
От этого ещё никто не умер!


Скрыть подпись
Top
1 человек просматривает эту тему (1 гость)
« Предыдущая тема | Мир и люди искусства | Следующая тема »


 



[Script Execution time: 0,0234]   [22 queries used]   [GZIP enabled]