Заходят многие - остаются лучшие!
Здравствуйте Гость ( Вход | Регистрация ) Выслать повторно письмо для активации
Вход
Ваше имя Пароль Забыли пароль?
Запомнить Вас?
Войти скрытым?



 Правила раздела Новые сообщения раздела  


 

 Встреча в горах (1966), Комедия,музыкальный;Реж.-Н.Санишвили;Роли-Л.Абашидзе,Т.Арчвадзе,В.Кика
SanSan48
  №1 Отправлено: 14.03.2017 - 10:57


"Спартак" - ЧЕМПИОН!!!

Группа: Пользователи
Регистрация: 28.12.2009
Сообщений: 1757
Обитает:
Последний раз был:
вчера в 20:22




Встреча в горах (1966)



Предыдущая раздача:
04.11.2008 (DVDrip)

Жанр: Комедия, музыкальный
Выпущено: СССР, Грузия-фильм
Год выпуска: 1966
Премьера (СССР): 17 июля 1967 (Москва)
Премьера (мир): 24 ноября 1967 (Германия (ГДР))
Сценаристы: Пётр Грузинский, Николай (Николоз) Санишвили
Оператор: Феликс Высоцкий
Композиторы: Бидзина (Александр) Квернадзе, Резо (Реваз) Лагидзе
Художники: Леонид Мамаладзе, И.Кипшидзе
Монтажёр: Лариса Дигмелова, М.Придонова

Режиссёр: Николай (Николоз) Санишвили

В ролях:
Лейла Абашидзе ... Лали и Мзевинар
Тенгиз Арчвадзе ... Вахтанг, инженер, отец Нателы, влюбленный в хевсурскую девушку Мзевинар
Лали Месхи ... Натела, дочь Вахтанга, возлюбленная Гии
Вахтанг (Буба) Кикабидзе ... Гия, артист: киноактер и певец
Котэ (Константин) Даушвили ... Звиад, дедушка Нателы, житель горного селения
Ипполит Хвичия ... Мераб, друг Вахтанга
Алексей Мамрикишвили ...
Нина (Нино) Чхеидзе ... Гвиристинэ
Роберт Бардзимашвилиl ... музыкант ансамбля "Орэра"
Нуну Мачавариани ...
Елена Кипшидзе ...

Описание:
В горах Хевсуретии проходят съемки художественного фильма. Режиссер недоволен игрой артистки Лали, исполняющей роль хевсурской девушки Мзевинар. Актриса решает доказать, что она сможет убедительно сыграть свою героиню...

Дополнительная информация: Релиз:

Автор рипа: pmv

Большое спасибо за:
- исходный DVB - AND01AND
(Запись потока *.ts с наземного цифрового телеканала "Беларусь 3")

* В фильме звучат песни композиторов: Арчила Кереселидзе, Л.Певзнера, Реваза Лагидзе, Георгия Цабадзе, С.Мирианашвили, Б.Квернадзе, Ш.Милорава
* В фильме принимал участие ВИА «Орэра» под руководством Роберта Бардзимашвили.
* Песни в фильме исполняет Нани Брегвадзе.
* Фильм в оригинале создан на грузинском языке, а затем дублирован на русский язык. Многие эпизоды в версии на оригинальном языке смонтированы иначе.

IMDb = 7,9/10 (40) - http://www.imdb.com/title/tt0235087/
Кинопоиск = - (45) - http://www.kinopoisk.ru/film/43736

ВНИМАНИЕ!!! РИП ФОРМАТА mkv (кодек H.264) ВОСПРОИЗВОДИТСЯ НЕ НА ВСЕХ БЫТОВЫХ ВИДЕОПЛЕЕРАХ!!!

Параметры файла:
Название: Встреча в горах (1966).mkv
Качество видео: TVRip-AVC
Формат видео: MKV
Размер: 744 МБ (780 715 208 bytes)
Продолжительность: 01:19:52
Перевод: Профессиональный (дублированный) – советский дубляж (к/ст им. М.Горького)
Видео: AVC (H264), 720@790x336 (2.35:1), 25 fps, ~1110 Kbps avg, 0.184 Bits/Pixel
Аудио: AC3, 48 KHz, stereo (2 ch), 192 Kbps – Советский дубляж



General
Unique ID : 183534488893640837182011723477416137359 (0x8A1374F0C440AEA896E87A787523D28F)
Complete name : D:\torrents\Встреча в горах (1966).mkv
Format : Matroska
Format version : Version 4 / Version 2
File size : 745 MiB
Duration : 1h 19mn
Overall bit rate : 1 303 Kbps
Encoded date : UTC 2017-03-04 22:31:57
Writing application : mkvmerge v9.9.0 ('Pick Up') 64bit
Writing library : libebml v1.3.4 + libmatroska v1.4.5
DURATION : 01:19:52.288000000
NUMBER_OF_FRAMES : 149759
NUMBER_OF_BYTES : 115014912
_STATISTICS_WRITING_APP : mkvmerge v9.9.0 ('Pick Up') 64bit
_STATISTICS_WRITING_DATE_UTC : 2017-03-04 22:31:57
_STATISTICS_TAGS : BPS DURATION NUMBER_OF_FRAMES NUMBER_OF_BYTES

Video
ID : 1
Format : AVC
Format/Info : Advanced Video Codec
Format profile : High@L4.1
Format settings, CABAC : Yes
Format settings, ReFrames : 16 frames
Codec ID : V_MPEG4/ISO/AVC
Duration : 1h 19mn
Bit rate : 1 110 Kbps
Width : 720 pixels
Height : 336 pixels
Display aspect ratio : 2.35:1
Original display aspect ratio : 2.143
Frame rate mode : Constant
Frame rate : 25.000 fps
Color space : YUV
Chroma subsampling : 4:2:0
Bit depth : 8 bits
Scan type : Progressive
Bits/(Pixel*Frame) : 0.184
Stream size : 620 MiB (83%)
Writing library : x264 core 146 r2538 121396c
Encoding settings : cabac=1 / ref=16 / deblock=1:0:0 / analyse=0x3:0x133 / me=umh / subme=10 / psy=1 / psy_rd=1.00:0.00 / mixed_ref=1 / me_range=24 / chroma_me=1 / trellis=2 / 8x8dct=1 / cqm=0 / deadzone=21,11 / fast_pskip=1 / chroma_qp_offset=-2 / threads=48 / lookahead_threads=2 / sliced_threads=0 / nr=0 / decimate=1 / interlaced=0 / bluray_compat=0 / constrained_intra=0 / bframes=8 / b_pyramid=2 / b_adapt=2 / b_bias=0 / direct=3 / weightb=1 / open_gop=0 / weightp=2 / keyint=250 / keyint_min=25 / scenecut=40 / intra_refresh=0 / rc_lookahead=60 / rc=2pass / mbtree=1 / bitrate=1110 / ratetol=1.0 / qcomp=0.60 / qpmin=0 / qpmax=69 / qpstep=4 / cplxblur=20.0 / qblur=0.5 / ip_ratio=1.40 / aq=1:1.00
Language : Russian
Default : Yes
Forced : No

Audio
ID : 2
Format : AC-3
Format/Info : Audio Coding 3
Mode extension : CM (complete main)
Format settings, Endianness : Big
Codec ID : A_AC3
Duration : 1h 19mn
Bit rate mode : Constant
Bit rate : 192 Kbps
Channel(s) : 2 channels
Channel positions : Front: L R
Sampling rate : 48.0 KHz
Bit depth : 16 bits
Compression mode : Lossy
Stream size : 110 MiB (15%)
Language : Russian
Default : Yes
Forced : No








МОИ РАЗДАЧИ НА ФЕНИКСе: ЗДЕСЬ




--------------------
"Спартак" - ЧЕМПИОН!!!

Скрыть подпись
tomclon
  №2 Отправлено: 14.03.2017 - 12:08


Новичок

Группа: Потребители
Регистрация: 13.03.2009
Сообщений: 57
Обитает:
Последний раз был:
29.05.2017 - 05:27




Спасибо за раздачу, архивы в порядке yes.gif
Top
SanSan48
№3 Отправлено: 14.03.2017 - 12:43


"Спартак" - ЧЕМПИОН!!!

Группа: Пользователи
Регистрация: 28.12.2009
Сообщений: 1757
Обитает:
Последний раз был:
вчера в 20:22




Цитата
( tomclon @ 14.03.2017 - 12:08)
Спасибо за раздачу, архивы в порядке yes.gif

tomclon, Благодарю за сообщение!


--------------------
"Спартак" - ЧЕМПИОН!!!

Скрыть подпись
Top
EvansT
№4 Отправлено: 14.03.2017 - 18:15


Старожил

Группа: Форумчане
Регистрация: 2.07.2008
Сообщений: 800
Обитает:
Последний раз был:
вчера в 15:04




Спасибо! Супер! Наконец то любимый фильм в отличном качестве! Помню , смотрел оригинал на грузинском в конце 90х по АДЖАРА ТВ, копия была ужасной, заеханой, но было интересно посмотреть .
Top
1 человек просматривает эту тему (1 гость)
« Предыдущая тема | Отечественное кино | Следующая тема »


 



[Script Execution time: 0,0346]   [24 queries used]   [GZIP enabled]