Заходят многие - остаются лучшие!
Здравствуйте Гость ( Вход | Регистрация ) Выслать повторно письмо для активации
Вход
Ваше имя Пароль Забыли пароль?
Запомнить Вас?
Войти скрытым?



 Правила раздела Новые сообщения раздела  


 

 Юные годы / The Green Years (1946), Чарльз Коберн, Дин Стокуэлл / экранизация
surzhoks
  №1 Отправлено: 14.03.2017 - 19:32


Старожил

Группа: Аксакалы
Регистрация: 17.03.2008
Сообщений: 939
Обитает:
Последний раз был:
вчера в 19:18




Юные годы / The Green Years


Страна: США
Студия: Metro-Goldwyn-Mayer (MGM)
Жанр: драма
Год выпуска: 1946
Продолжительность: 02:04:49
Режиссер: Виктор Савилл / Victor Saville
Композитор: Херберт Стотхарт / Herbert Stothart
В ролях:
Чарльз Коберн / Charles Coburn ... Alexander Gow
Дин Стокуэлл / Dean Stockwell ... Robert Shannon as a Child
Том Дрэйк / Tom Drake ... Robert Shannon as a Young Man
Беверли Тайлер / Beverly Tyler ... Alison Keith as a Young Woman
Хьюм Кронин / Hume Cronyn ... Papa Leckie
Глэдис Купер / Gladys Cooper ... Grandma Leckie
Селена Ройл / Selena Royle ... Mama Leckie
Джессика Тэнди / Jessica Tandy ... Kate Leckie
Ричард Хейдн / Richard Haydn ... Jason Reid
Энди Клайд / Andy Clyde ... Saddler Boag
Норман Ллойд / Norman Lloyd ... Adam Leckie
Уоллес Форд / Wallace Ford ... Jamie Nigg
Генри О’Нилл / Henry O'Neill ... Canon Roche
Генри Стивенсон / Henry Stephenson ... Prof. Rattray Blakely
Норма Варден / Norma Varden ... Mrs. Bosomley
Эйлен Янссен / Eilene Janssen ... Alison Keith as a Child
Роберт Норт / Robert North ... Murdoch Leckie
Генри Х. Дэниелс мл. / Henry H. Daniels Jr. (в титрах: Hank Daniels) ... Gavin Blair as Young Man
Ричард Лион / Richard Lyon ... Gavin Blair as a Child

Описание: Сирота Роберт Шеннон покидает Ирландию и едет в Логангфорд (Шотландия) в дом родственников матери. Воспитанием мальчика занимаются его прадед, дед и бабушка. Наставником Роберта в его юные годы становится добрый и понимающий прадед. Он помогает подростку преодолеть проблемы в отношениях с близкими и друзьями. Старик всегда рядом, когда нужен Роберту. Окончив школу, юноша хочет поступать в медицинский вуз, и прадед поддерживает его в этом стремлении, несмотря на протесты своего сына, деда Роберта.
Экранизация одноименного романа Арчибальдa Джозефa Кронинa.

- Джессика Тэнди в фильме играла дочь персонажа Хьюма Кронина, хотя в действительности она была старше его на два года.

Оскар, 1947 год
Номинации в категориях (2):
- Лучшая мужская роль второго плана (Чарльз Коберн)
- Лучшая работа оператора (ч/б фильмы)


Доп. информация:
Огромное спасибо всем причастным к релизу:
рип - Магда,
перевод фильма - Северный,
озвучивание фильма (по русским субтитрам)- fiendover (Виктор Рутилов),
работа со звуком и реавторинг исходного DVD- AlekceyR76,
финансовая поддержка перевода и озвучивания фильма:
Магда, Lafajet, jasenka, елена 22, yanaelisa, борюська, HippopotamusIV, sindzi, surzhoks, Ugo927, voostorg, cementit, BaluBaly, spartakeynoir, mangust1, Patsy+

Архивы созданы RAR-архиватором с добавлением 3% на восстановление и снабжены sfv-проверочником.
Просьба к первому скачавшему отписаться о сохранности архивов на источнике раздачи.

Раздача рассчитана на 2 месяца. На просмотр линка и скачивание 5 дней!
В случае если вы встали в очередь, а затем отказываетесь от скачивания без объяснения причин, возможен отказ в последующих моих раздачах.



Полное имя :The Green years.avi
Формат : AVI
Формат/Информация : Audio Video Interleave
Профиль формата : OpenDML
Размер файла : 2,19 Гбайт
Продолжительность : 2 ч. 4 м.
Общий поток : 2509 Кбит/сек
Программа кодирования : VirtualDubMod 1.5.10.3 | www.virtualdub-fr.org || (build 2550/release)
Библиотека кодирования : VirtualDubMod build 2550/release

Видео
Идентификатор : 0
Формат : MPEG-4 Visual
Профиль формата : Advanced Simple@L5
Параметр BVOP формата : 2
Параметр QPel формата : Нет
Параметр GMC формата : Без точки перехода
Параметр матрицы формата : Default (H.263)
Идентификатор кодека : DX50
Идентификатор кодека/Подсказка : DivX 5
Продолжительность : 2 ч. 4 м.
Битрейт : 2107 Кбит/сек
Ширина : 640 пикселей
Высота : 480 пикселей
Соотношение сторон : 4:3
Частота кадров : 23,976 кадра/сек
Цветовое пространство : YUV
Субдискретизация насыщенности : 4:2:0
Битовая глубина : 8 бит
Тип развёртки : Прогрессивная
Метод сжатия : С потерями
Бит/(Пиксели*Кадры) : 0.286
Размер потока : 1,84 Гбайт (84%)
Библиотека кодирования : XviD 73

Аудио #1
Идентификатор : 1
Формат : AC-3
Формат/Информация : Audio Coding 3
Расширение режима : CM (complete main)
Параметр Endianness формата : Big
Идентификатор кодека : 2000
Продолжительность : 2 ч. 4 м.
Вид битрейта : Постоянный
Битрейт : 192 Кбит/сек
Каналы : 2 канала
Расположение каналов : Front: L R
Частота : 48,0 КГц
Битовая глубина : 16 бит
Метод сжатия : С потерями
Размер потока : 171 Мбайт (8%)
Выравнивание : Разделение по промежуткам
Продолжительность промежутка : 42 мс. (1,00 видеокадр)
Время предзагрузки промежутка : 500 мс.

Аудио #2
Идентификатор : 2
Формат : AC-3
Формат/Информация : Audio Coding 3
Расширение режима : CM (complete main)
Параметр Endianness формата : Big
Идентификатор кодека : 2000
Продолжительность : 2 ч. 4 м.
Вид битрейта : Постоянный
Битрейт : 192 Кбит/сек
Каналы : 2 канала
Расположение каналов : Front: L R
Частота : 48,0 КГц
Битовая глубина : 16 бит
Метод сжатия : С потерями
Размер потока : 171 Мбайт (8%)
Выравнивание : Разделение по промежуткам
Продолжительность промежутка : 42 мс. (1,00 видеокадр)
Время предзагрузки промежутка : 500 мс.




--------------------
Искусство откладывать деньги сводится к умению сказать “нет” потребительскому обществу.

Скрыть подпись


vjub58
№2 Отправлено: 14.03.2017 - 21:09


Практикующий эсквайр

Группа: Аксакалы
Регистрация: 6.12.2005
Сообщений: 4501
Обитает:
Последний раз был:
cегодня в 21:18




Спасибо, все ОК. pozdrav_buket.gif
Top
alex13136
№3 Отправлено: 19.03.2017 - 09:21


Гость

Группа: Новички
Регистрация: 25.02.2011
Сообщений: 1
Обитает:
Последний раз был:
19.03.2017 - 11:36




Большое спасибо!!!
Top
1 человек просматривает эту тему (1 гость)
« Предыдущая тема | Зарубежные фильмы | Следующая тема »


 



[Script Execution time: 0,0309]   [23 queries used]   [GZIP enabled]