Заходят многие - остаются лучшие!
Здравствуйте Гость ( Вход | Регистрация ) Выслать повторно письмо для активации
Вход
Ваше имя Пароль Забыли пароль?
Запомнить Вас?
Войти скрытым?



Новые сообщения раздела  

 

 Библейский сюжет. Кнут Гамсун. Голод (2017), Авторская программа Дмитрия Менделеева.
Alevtina
  №1 Отправлено: 14.03.2017 - 19:51


Время камни собирать...

Группа: Аксакалы
Регистрация: 12.02.2009
Сообщений: 5484
Обитает:
Последний раз был:
cегодня в 11:45




Библейский сюжет. Кнут Гамсун. "Голод"



В рамках проекта -

Год выпуска: 2017

Страна: Россия

Режиссер: Мария Гусева

Студия: ООО Студия "Неофит"

Субтитры: нет

Автор и ведущий: Дмитрий Менделеев


Обращение великих художников к Библии никогда не заканчивалось только иллюстрацией того или иного сюжета Вечной Книги. Оно всегда предполагало личное осмысление. Художник выбирал библейскую историю, чтобы рассказать о себе, о своем времени, чтобы глубже постичь смысл происходящего.
Язык образов Святого Писания был универсален и понятен для всех. Но теперь для нас этот язык наполовину забыт. Мы уже не можем так ясно, с листа, читать всё, что говорили в своих произведениях художники, поэты, композиторы и писатели прошлого. Мы более опираемся на чувственное восприятие, которое все же является только частью замысла, его внешней стороной. В программе "Библейский сюжет" делается попытка соединить "прекрасного разрозненные части", по-другому взглянуть на всемирно известные произведения искусства, рассказать о судьбе их создателей.


Описание:

Светлое чувство возвращения к жизни возродило меня, я был благодарен Богу и всему миру, я опустился на колени и громко возблагодарил Творца за великую милость, которую Он ниспослал мне... Я знал, да, знал, что этот порыв вдохновения, который я только что пережил, был чудом, свершившимся в моей душе по воле Неба, откликом на мой крик о помощи. Там Господь! Там Господь! - восклицал я и плакал, умиленный собственными словами. Кнут Гамсун. «Голод».




За постер благодарю bornik! Спасибо!


Media-info:


Format : AVI
Format/Info : Audio Video Interleave
File size : 434 MiB
Duration : 25mn 59s
Overall bit rate : 2 335 Kbps
Writing application : VirtualDubMod 1.5.10.2 (build 2540/release)
Writing library : VirtualDubMod build 2540/release

Video
ID : 0
Format : MPEG-4 Visual
Format profile : Advanced Simple@L5
Format settings, BVOP : 1
Format settings, QPel : No
Format settings, GMC : No warppoints
Format settings, Matrix : Default (H.263)
Muxing mode : Packed bitstream
Codec ID : XVID
Codec ID/Hint : XviD
Duration : 25mn 59s
Bit rate : 2 198 Kbps
Width : 720 pixels
Height : 400 pixels
Display aspect ratio : 16:9
Frame rate : 25.000 fps
Color space : YUV
Chroma subsampling : 4:2:0
Bit depth : 8 bits
Scan type : Progressive
Compression mode : Lossy
Bits/(Pixel*Frame) : 0.305
Stream size : 408 MiB (94%)
Writing library : XviD 65

Audio
ID : 1
Format : MPEG Audio
Format version : Version 1
Format profile : Layer 3
Mode : Joint stereo
Mode extension : MS Stereo
Codec ID : 55
Codec ID/Hint : MP3
Duration : 25mn 58s
Bit rate mode : Constant
Bit rate : 128 Kbps
Channel(s) : 2 channels
Sampling rate : 48.0 KHz
Compression mode : Lossy
Stream size : 23.8 MiB (5%)
Alignment : Aligned on interleaves
Interleave, duration : 40 ms (1.00 video frame)
Interleave, preload duration : 504 ms
Writing library : LAME3.98r
Encoding settings : -m j -V 4 -q 3 -lowpass 17 -b 128




Скриншоты:






Записались на автоматическое включение в очередь:
baziss, Snara, valbar, vyur, RussianGuy, Marrina, медикус, mosk7, Nadejdaenergia, ILIA, Masjanja, ajlinn, oldfanat, bondsun, mikhailk, medandrey, oster47, Tanjusha, andrusenko, rittaa.

Если вы хотите, чтобы вас автоматически ставили в очередь на следующие выпуски данного цикла, - сообщите об этом в теме последней раздачи.




Это сообщение отредактировал Alevtina - 30.03.2017 - 17:30


--------------------

Прохожие, купите Доброту!
Лишь за улыбку! Разве ж это много!
Исполните заветную мечту…
И хоть одну из Заповедей Бога!
Снимите маски «гордых» и «крутых»
Купите, хоть немножечко, Терпенья.
И ощутите сердцем, хоть на миг,
Всю прелесть и восторг благодаренья!
Сегодня, АКЦИЯ на Совесть и Любовь!
Притормозите «хаммер» свой, иль «буммер»!
Купите! И волнуйте свою кровь!
От этого ещё никто не умер!


Скрыть подпись


RussianGuy
№2 Отправлено: 14.03.2017 - 21:32


Посетитель

Группа: Потребители
Регистрация: 12.02.2007
Сообщений: 267
Обитает:
Последний раз был:
cегодня в 13:40




Архивы в порядке. Спасибо
Top
Alevtina
№3 Отправлено: 14.03.2017 - 21:37


Время камни собирать...

Группа: Аксакалы
Регистрация: 12.02.2009
Сообщений: 5484
Обитает:
Последний раз был:
cегодня в 11:45




RussianGuy, благодарю за весть! zdarov1.gif


--------------------

Прохожие, купите Доброту!
Лишь за улыбку! Разве ж это много!
Исполните заветную мечту…
И хоть одну из Заповедей Бога!
Снимите маски «гордых» и «крутых»
Купите, хоть немножечко, Терпенья.
И ощутите сердцем, хоть на миг,
Всю прелесть и восторг благодаренья!
Сегодня, АКЦИЯ на Совесть и Любовь!
Притормозите «хаммер» свой, иль «буммер»!
Купите! И волнуйте свою кровь!
От этого ещё никто не умер!


Скрыть подпись
Top
1 человек просматривает эту тему (1 гость)
« Предыдущая тема | Мир и люди искусства | Следующая тема »


 



[Script Execution time: 0,0177]   [23 queries used]   [GZIP enabled]