Заходят многие - остаются лучшие!
Здравствуйте Гость ( Вход | Регистрация ) Выслать повторно письмо для активации
Вход
Ваше имя Пароль Забыли пароль?
Запомнить Вас?
Войти скрытым?



Новые сообщения раздела  

 

 Земная жизнь Иисуса Христа (2016), Жанр: Исторический, документальный
Alevtina
  №1 Отправлено: 14.03.2017 - 21:32


Время камни собирать...

Группа: Аксакалы
Регистрация: 12.02.2009
Сообщений: 5460
Обитает:
Последний раз был:
вчера в 12:02




Земная жизнь Иисуса Христа



Земная жизнь Иисуса Христа

Оригинальное название: Земная жизнь Иисуса Христа
Год выпуска: 2016
Жанр: Документальный, исторический, христианство
Выпущено: Россия
Продолжительность: 00:52:08
Перевод: Не требуется

Режиссер: Константин Голенчик


Описание: Земная жизнь Иисуса Христа – самый распространённый сюжет в мировом искусстве, который никогда не будет исчерпан. Главный источник, рассказывающий о жизни Спасителя, – четыре Евангелия, они составляют основу Нового Завета. А вся география Святой Земли – это воспоминания о шагах и деяниях Иисуса из Назарета.
Создатели фильма шаг за шагом проходят жизненный путь Господа...


За инициативу появления этой раздачи, за постер благодарность принадлежит bornik!!! Спасибо!!!


Медиа-инфа:
Format : AVI
Format/Info : Audio Video Interleave
File size : 798 MiB
Duration : 52mn 15s
Overall bit rate : 2 134 Kbps
Writing application : VirtualDubMod 1.5.10.2 (build 2540/release)
Writing library : VirtualDubMod build 2540/release

Video
ID : 0
Format : MPEG-4 Visual
Format profile : Advanced Simple@L5
Format settings, BVOP : 2
Format settings, QPel : No
Format settings, GMC : No warppoints
Format settings, Matrix : Default (H.263)
Muxing mode : Packed bitstream
Codec ID : XVID
Codec ID/Hint : XviD
Duration : 52mn 15s
Bit rate : 1 996 Kbps
Width : 720 pixels
Height : 400 pixels
Display aspect ratio : 16:9
Frame rate : 25.000 fps
Color space : YUV
Chroma subsampling : 4:2:0
Bit depth : 8 bits
Scan type : Progressive
Compression mode : Lossy
Bits/(Pixel*Frame) : 0.277
Stream size : 746 MiB (94%)
Writing library : XviD 65

Audio
ID : 1
Format : MPEG Audio
Format version : Version 1
Format profile : Layer 3
Mode : Joint stereo
Mode extension : MS Stereo
Codec ID : 55
Codec ID/Hint : MP3
Duration : 52mn 15s
Bit rate mode : Constant
Bit rate : 128 Kbps
Channel(s) : 2 channels
Sampling rate : 48.0 KHz
Compression mode : Lossy
Stream size : 47.9 MiB (6%)
Alignment : Aligned on interleaves
Interleave, duration : 40 ms (1.00 video frame)
Interleave, preload duration : 504 ms
Writing library : LAME3.98r
Encoding settings : -m j -V 4 -q 3 -lowpass 17 -b 128



Скриншоты:








Это сообщение отредактировал Alevtina - 14.03.2017 - 21:42


--------------------

Прохожие, купите Доброту!
Лишь за улыбку! Разве ж это много!
Исполните заветную мечту…
И хоть одну из Заповедей Бога!
Снимите маски «гордых» и «крутых»
Купите, хоть немножечко, Терпенья.
И ощутите сердцем, хоть на миг,
Всю прелесть и восторг благодаренья!
Сегодня, АКЦИЯ на Совесть и Любовь!
Притормозите «хаммер» свой, иль «буммер»!
Купите! И волнуйте свою кровь!
От этого ещё никто не умер!


Скрыть подпись


sobinov
№2 Отправлено: 15.03.2017 - 10:32


Живёт здесь

Группа: Потребители
Регистрация: 18.07.2009
Сообщений: 3185
Обитает:
Последний раз был:
вчера в 16:06




Архивы в порядке. Спасибо!
Top
Alevtina
№3 Отправлено: 15.03.2017 - 14:28


Время камни собирать...

Группа: Аксакалы
Регистрация: 12.02.2009
Сообщений: 5460
Обитает:
Последний раз был:
вчера в 12:02




sobinov, благодарю за весть!!!


--------------------

Прохожие, купите Доброту!
Лишь за улыбку! Разве ж это много!
Исполните заветную мечту…
И хоть одну из Заповедей Бога!
Снимите маски «гордых» и «крутых»
Купите, хоть немножечко, Терпенья.
И ощутите сердцем, хоть на миг,
Всю прелесть и восторг благодаренья!
Сегодня, АКЦИЯ на Совесть и Любовь!
Притормозите «хаммер» свой, иль «буммер»!
Купите! И волнуйте свою кровь!
От этого ещё никто не умер!


Скрыть подпись
Top
Константин
№4 Отправлено: 18.03.2017 - 06:40


Живёт здесь

Группа: Аксакалы
Регистрация: 10.09.2006
Сообщений: 4560
Обитает:
Последний раз был:
вчера в 20:17




Извините, пожалуйста, но не могу не вмешаться: "Документальное кино - это вид киноискусства, материалом которого являются съёмки подлинных событий.
Советский энциклопедический словарь, Москва, 1980."


--------------------
Открылась бездна звезд полна! Звездам числа нет, бездне - дна...

Скрыть подпись
Top
1 человек просматривает эту тему (1 гость)
« Предыдущая тема | Летопись времён и идей | Следующая тема »


 



[Script Execution time: 0,0213]   [23 queries used]   [GZIP enabled]