Заходят многие - остаются лучшие!
Здравствуйте Гость ( Вход | Регистрация ) Выслать повторно письмо для активации
Вход
Ваше имя Пароль Забыли пароль?
Запомнить Вас?
Войти скрытым?



Новые сообщения раздела  

 

 BBC: Мир природы. Исландия. Дикая жизнь / BBC: The Natural World. Iceland - A Wild Life (2015), Animal Family HD
bornik
  №1 Отправлено: 22.11.2017 - 18:18


Воспоминания - это богатства старости.

Группа: Модераторы
Регистрация: 18.08.2008
Сообщений: 1020
Обитает:
Последний раз был:
cегодня в 11:31




BBC: "Мир природы". Исландия. Дикая жизнь / BBC: The Natural World. Iceland - A Wild Life (2015)



«Исландия. Дикая жизнь» - документальный фильм способен на 50 минут переместить вас на живописный северный остров, в холодном климате которого обитает множество милых зверей и птиц.
Когда постоянная угроза извержения вулканов становится частью жизни, а стремительно меняющиеся времена года держат в напряжении всех обитателей этих мест – приходит понимание, что этот остров льда и пламени приручить практически невозможно.
Но теперь есть возможность взглянуть на Исландию глазами живущих на ней людей и понять, почему они сделали это негостеприимное место своим домом.

Название: BBC: "Мир природы". Исландия. Дикая жизнь
Оригинальное название: BBC: The Natural World. Iceland - A Wild Life
Год выпуска: 2015
Жанр: Документальный, природа, фауна, флора
Выпущено: Великобритания, A BBC / Animal Planet Co-Production
Продолжительность: 00:51:42
Субтитры: Русские (мои)

Режиссёр: Эндрю Чэстни / Andrew Chastney

Описание: Исландия один из самых загадочных островов на земле. В её скудной природе комфортно чувствуют себя не только люди, но и звери. Например, песец, некоторые виды уток. Не стоит забывать, что Исландия - остров вулканического происхождения, а вулкан может проснуться в любой момент.
Ведь в центре сюжета страна-парадокс. Её население не доходит до 322 тысяч человек, а с ней считаются на международной арене. Северные оконечности острова вплотную приближены к полярному кругу, но зимой там часто бывает теплее, чем в куда более южных странах: не только в Германии или Польше, но даже в некоторых районах Италии и Турции.
Всё за счёт заботливого обогрева Гольфстримом и обилия термальных источников. В то же время, в Исландии находится место и ледникам.








General
Complete name : C:\DVD documental fimls\BBC: Мир природы\Исландия. Дикая жизнь (2015).avi
Format : AVI
Format/Info : Audio Video Interleave
File size : 814 MiB
Duration : 51mn 42s
Overall bit rate : 2 202 Kbps
Writing library : VirtualDub build 35491/release

Video
ID : 0
Format : MPEG-4 Visual
Format profile : Advanced Simple@L5
Format settings, BVOP : 2
Format settings, QPel : No
Format settings, GMC : No warppoints
Format settings, Matrix : Default (H.263)
Muxing mode : Packed bitstream
Codec ID : XVID
Codec ID/Hint : XviD
Duration : 51mn 42s
Bit rate : 1 996 Kbps
Width : 720 pixels
Height : 400 pixels
Display aspect ratio : 16:9
Frame rate : 29.970 fps
Color space : YUV
Chroma subsampling : 4:2:0
Bit depth : 8 bits
Scan type : Progressive
Compression mode : Lossy
Bits/(Pixel*Frame) : 0.231
Stream size : 738 MiB (91%)
Writing library : XviD 65

Audio
ID : 1
Format : MPEG Audio
Format version : Version 1
Format profile : Layer 3
Mode : Joint stereo
Mode extension : MS Stereo
Codec ID : 55
Codec ID/Hint : MP3
Duration : 51mn 42s
Bit rate mode : Constant
Bit rate : 192 Kbps
Channel(s) : 2 channels
Sampling rate : 48.0 KHz
Compression mode : Lossy
Stream size : 71.0 MiB (9%)
Alignment : Aligned on interleaves
Interleave, duration : 24 ms (0.72 video frame)
Interleave, preload duration : 504 ms
Writing library : LAME3.98


Записались на автоматическое включение в очередь: Alevtina, Nadejdaenergia, baziss, grival406, медикус

Если вы хотите, чтобы вас автоматически ставили в очередь на следующие фильмы о природе,
- сообщите об этом в теме последней раздачи.


=================================

Исходником послужил релиз HDTV, найденный на просторах инета!

Архивы созданы RAR-архиватором с добавлением 3% на восстановление и снабжены sfv-проверочником.
Просьба к первому скачавшему отписаться о сохранности архивов на источнике раздачи.


ПРИЯТНОГО ВСЕМ ПРОСМОТРА !!!




--------------------
Безоблачная старость – это миф,
Поскольку наша память – ширь морская,
И к ночи начинается прилив,
Со дна обломки прошлого таская.
Игорь Губерман

Скрыть подпись
baziss
№2 Отправлено: 22.11.2017 - 19:15


Аксакал обыкновенный

Группа: Аксакалы
Регистрация: 4.12.2005
Сообщений: 2541
Обитает:
Последний раз был:
cегодня в 11:39




Архив в порядке. Спасибо большое!


--------------------

Скрыть подпись
Top
bornik
№3 Отправлено: 22.11.2017 - 20:47


Воспоминания - это богатства старости.

Группа: Модераторы
Регистрация: 18.08.2008
Сообщений: 1020
Обитает:
Последний раз был:
cегодня в 11:31




Цитата
( baziss @ 22.11.2017 - 19:15)
Архив в порядке. Спасибо большое!

И Вам, baziss, спасибо за добрую весть. happy_fly.gif


--------------------
Безоблачная старость – это миф,
Поскольку наша память – ширь морская,
И к ночи начинается прилив,
Со дна обломки прошлого таская.
Игорь Губерман

Скрыть подпись
Top
1 человек просматривает эту тему (1 гость)
« Предыдущая тема | Мир вокруг нас | Следующая тема »


 



[Script Execution time: 0,0592]   [23 queries used]   [GZIP enabled]