Заходят многие - остаются лучшие!
Здравствуйте Гость ( Вход | Регистрация ) Выслать повторно письмо для активации
Вход
Ваше имя Пароль Забыли пароль?
Запомнить Вас?
Войти скрытым?



 Правила раздела Новые сообщения раздела  


 

 Бюро по розыску пропавших / Bureau of Missing Persons (1933), Бетт Дэвис / драма, комедия, криминал
surzhoks
  №1 Отправлено: 14.01.2017 - 20:43


Старожил

Группа: Аксакалы
Регистрация: 17.03.2008
Сообщений: 965
Обитает:
Последний раз был:
14.09.2017 - 19:11




Бюро по розыску пропавших / Bureau of Missing Persons


Страна: США
Студия: First National Pictures Inc., Warner Bros. Pictures
Жанр: драма, комедия, криминал
Год выпуска: 1933
Продолжительность: 01:12:35
Режиссер: Рой Дель Рут / Roy Del Ruth
В ролях:
Бетт Дэвис / Bette Davis ... Norma
Льюис Стоун / Lewis Stone (в титрах: Lewis S. Stone) ... Police Captain Webb
Пэт О’Брайен / Pat O'Brien ... Detective Butch Saunders
Гленда Фаррелл / Glenda Farrell ... Belle
Аллен Дженкинс / Allen Jenkins ... Detective Joe Musik
Рут Доннелли / Ruth Donnelly ... Gwendolyn «Pete» Harris
Хью Херберт / Hugh Herbert ... Detective Hank Slade
Алан Дайнхарт / Alan Dinehart ... Therme Roberts
Мерджори Гатесон / Marjorie Gateson ... Mrs. Paul
Тад Александр / Tad Alexander ... Caesar Paul
Ноэль Френсис / Noel Francis ... Alice Crane
Уоллис Кларк / Wallis Clark ... Mr. Paul
Адриан Моррис / Adrian Morris ... Detective Irish Conlin
Клэй Клемент / Clay Clement ... Burton C. Kingman
Генри Колкер / Henry Kolker ... Mr. Theodore Arno

Описание: Бутч Сондерс, дерзкий и бескомпромиссный детектив полиции, был переведён из отдела по расследованию ограблений в Бюро по розыску пропавших. Когда молодая женщина обращается с просьбой найти ее мужа, он узнает, что на самом деле она - некая Норма Уильямс, разыскиваемая за убийство. Норма исчезает, инсценируя самоубийство. Сондерс решает инсценировать её «похороны», в надежде, что Норма объявится...


Доп. информация:
Огромное спасибо всем причастным к релизу:
рип - Магда,
перевод и озвучивание фильма - Алексей Яковлев,
работа со звуком и реавторинг исходного DVD- AlekceyR76,
финансовая поддержка перевода и озвучивания фильма:
Магда, Lafajet, jasenka, елена 22, yanaelisa, борюська, leoder, cementit, surzhoks, voostorg, HippopotamusIV, sapog1960, BaluBaly, spartakeynoir, GalaUkr, Лямдазонд

Архивы созданы RAR-архиватором с добавлением 3% на восстановление и снабжены sfv-проверочником.
Просьба к первому скачавшему отписаться о сохранности архивов на источнике раздачи.

Раздача рассчитана на 2 месяца. На просмотр линка и скачивание 5 дней!
В случае если вы встали в очередь, а затем отказываетесь от скачивания без объяснения причин, возможен отказ в последующих моих раздачах.



Полное имя :Bureau of Missing Persons.avi
Формат : AVI
Формат/Информация : Audio Video Interleave
Размер файла : 1,37 Гбайт
Продолжительность : 1 ч. 12 м.
Общий поток : 2699 Кбит/сек
Программа кодирования : VirtualDubMod 1.5.10.3 | www.virtualdub-fr.org || (build 2550/release)
Библиотека кодирования : VirtualDubMod build 2550/release

Видео
Идентификатор : 0
Формат : MPEG-4 Visual
Профиль формата : Advanced Simple@L5
Параметр BVOP формата : 2
Параметр QPel формата : Нет
Параметр GMC формата : Без точки перехода
Параметр матрицы формата : Default (H.263)
Идентификатор кодека : DX50
Идентификатор кодека/Подсказка : DivX 5
Продолжительность : 1 ч. 12 м.
Битрейт : 2301 Кбит/сек
Ширина : 640 пикселей
Высота : 480 пикселей
Соотношение сторон : 4:3
Частота кадров : 23,976 кадра/сек
Цветовое пространство : YUV
Субдискретизация насыщенности : 4:2:0
Битовая глубина : 8 бит
Тип развёртки : Прогрессивная
Метод сжатия : С потерями
Бит/(Пиксели*Кадры) : 0.312
Размер потока : 1,17 Гбайт (85%)
Библиотека кодирования : XviD 73

Аудио #1
Идентификатор : 1
Формат : AC-3
Формат/Информация : Audio Coding 3
Расширение режима : CM (complete main)
Параметр Endianness формата : Big
Идентификатор кодека : 2000
Продолжительность : 1 ч. 12 м.
Вид битрейта : Постоянный
Битрейт : 192 Кбит/сек
Каналы : 2 канала
Расположение каналов : Front: L R
Частота : 48,0 КГц
Битовая глубина : 16 бит
Метод сжатия : С потерями
Размер потока : 99,7 Мбайт (7%)
Выравнивание : Разделение по промежуткам
Продолжительность промежутка : 42 мс. (1,00 видеокадр)
Время предзагрузки промежутка : 500 мс.

Аудио #2
Идентификатор : 2
Формат : AC-3
Формат/Информация : Audio Coding 3
Расширение режима : CM (complete main)
Параметр Endianness формата : Big
Идентификатор кодека : 2000
Продолжительность : 1 ч. 12 м.
Вид битрейта : Постоянный
Битрейт : 192 Кбит/сек
Каналы : 2 канала
Расположение каналов : Front: L R
Частота : 48,0 КГц
Битовая глубина : 16 бит
Метод сжатия : С потерями
Размер потока : 99,7 Мбайт (7%)
Выравнивание : Разделение по промежуткам
Продолжительность промежутка : 42 мс. (1,00 видеокадр)
Время предзагрузки промежутка : 500 мс.




Это сообщение отредактировал surzhoks - 15.01.2017 - 10:34


--------------------
Искусство откладывать деньги сводится к умению сказать “нет” потребительскому обществу.

Скрыть подпись


kyo
№2 Отправлено: 14.01.2017 - 22:29


Живёт здесь

Группа: Потребители
Регистрация: 21.07.2007
Сообщений: 1767
Обитает:
Последний раз был:
вчера в 19:37




Архивы в порядке, спасибо !
Top
surzhoks
№3 Отправлено: 15.01.2017 - 10:34


Старожил

Группа: Аксакалы
Регистрация: 17.03.2008
Сообщений: 965
Обитает:
Последний раз был:
14.09.2017 - 19:11




kyo, спасибо за сообщение.


--------------------
Искусство откладывать деньги сводится к умению сказать “нет” потребительскому обществу.

Скрыть подпись
Top
1 человек просматривает эту тему (1 гость)
« Предыдущая тема | Зарубежные фильмы | Следующая тема »


 



[Script Execution time: 0,0303]   [23 queries used]   [GZIP enabled]