Заходят многие - остаются лучшие!
Здравствуйте Гость ( Вход | Регистрация ) Выслать повторно письмо для активации
Вход
Ваше имя Пароль Забыли пароль?
Запомнить Вас?
Войти скрытым?



Новые сообщения раздела  

 

 Библейский сюжет. Астрид Линдгрен. Будьте как дети (2015), Перераздача в лучшем качестве.
Alevtina
  №1 Отправлено: 1.12.2016 - 17:27


Время камни собирать...

Группа: Аксакалы
Регистрация: 12.02.2009
Сообщений: 5559
Обитает:
Последний раз был:
вчера в 18:31




Библейский сюжет. Астрид Линдгрен. "Будьте как дети"



Предыдущая раздача 31.01.2015

В рамках проекта -

Год выпуска: 2015

Страна: Россия

Режиссер: Мария Гусева

Студия: ООО Студия "Неофит"

Автор и ведущий: Дмитрий Менделеев


Обращение великих художников к Библии никогда не заканчивалось только иллюстрацией того или иного сюжета Вечной Книги. Оно всегда предполагало личное осмысление. Художник выбирал библейскую историю, чтобы рассказать о себе, о своем времени, чтобы глубже постичь смысл происходящего.
Язык образов Святого Писания был универсален и понятен для всех. Но теперь для нас этот язык наполовину забыт. Мы уже не можем так ясно, с листа, читать всё, что говорили в своих произведениях художники, поэты, композиторы и писатели прошлого. Мы более опираемся на чувственное восприятие, которое все же является только частью замысла, его внешней стороной. В программе "Библейский сюжет" делается попытка соединить "прекрасного разрозненные части", по-другому взглянуть на всемирно известные произведения искусства, рассказать о судьбе их создателей.


Описание:

- Ой! А я знаю, что мы будем делать! Вон там, в тростнике, мы будем играть в младенца Моисея. Лисабет так и запрыгала от восторга: Можно, я буду Моисеем? Ида хохочет: Ай да Моисей нашелся! Но ей пора развешивать белье, и Мадикен с Лисабет остаются одни на берегу Нила. По вечерам, после того как в детской погасят свет и в комнате делается темно и тихо, Мадикен рассказывает разные истории о привидениях, убийцах, о войне; а иногда - библейские истории, которые узнала от Линус Иды. И Лисабет хорошо знает, кто такой Моисей, как его положили в корзинку и бросили в реку, а потом пришла дочь фараона, принцесса Египетского царства, и нашла его в тростнике. У самой воды стоит бадья - как раз то, что надо для игры! Лисабет сразу лезет туда. - Нет, надо её стащить в воду, а то какой же это будет Моисей в тростнике!
Астрид Линдгрен. «Мадикен».



За постер благодарю bornik! Спасибо!

Немаловажное дополнение! В раздаче присутствуют русские субтитры (для слабослышащих!).


Media-info:


Format : AVI
Format/Info : Audio Video Interleave
File size : 431 MiB
Duration : 25mn 49s
Overall bit rate : 2 333 Kbps
Writing application : VirtualDubMod 1.5.10.2 (build 2540/release)
Writing library : VirtualDubMod build 2540/release

Video
ID : 0
Format : MPEG-4 Visual
Format profile : Advanced Simple@L5
Format settings, BVOP : 2
Format settings, QPel : No
Format settings, GMC : No warppoints
Format settings, Matrix : Default (H.263)
Muxing mode : Packed bitstream
Codec ID : XVID
Codec ID/Hint : XviD
Duration : 25mn 49s
Bit rate : 2 195 Kbps
Width : 720 pixels
Height : 400 pixels
Display aspect ratio : 16:9
Frame rate : 25.000 fps
Color space : YUV
Chroma subsampling : 4:2:0
Bit depth : 8 bits
Scan type : Progressive
Compression mode : Lossy
Bits/(Pixel*Frame) : 0.305
Stream size : 405 MiB (94%)
Writing library : XviD 65

Audio
ID : 1
Format : MPEG Audio
Format version : Version 1
Format profile : Layer 3
Codec ID : 55
Codec ID/Hint : MP3
Duration : 25mn 49s
Bit rate mode : Constant
Bit rate : 128 Kbps
Channel(s) : 1 channel
Sampling rate : 48.0 KHz
Compression mode : Lossy
Stream size : 23.6 MiB (5%)
Alignment : Aligned on interleaves
Interleave, duration : 40 ms (1.00 video frame)
Interleave, preload duration : 504 ms
Writing library : LAME3.98r
Encoding settings : -m m -V 4 -q 3 -lowpass 20.5 -b 128



Скриншоты:






Записались на автоматическое включение в очередь:
baziss, Snara, valbar, vyur, RussianGuy, Marrina, медикус, mosk7, Nadejdaenergia, ILIA, Masjanja, ajlinn, oldfanat, bondsun, mikhailk, medandrey, oster47, Tanjusha, andrusenko, rittaa.

Если вы хотите, чтобы вас автоматически ставили в очередь на следующие выпуски данного цикла, - сообщите об этом в теме последней раздачи.




Это сообщение отредактировал Alevtina - 4.12.2016 - 18:42


--------------------

Прохожие, купите Доброту!
Лишь за улыбку! Разве ж это много!
Исполните заветную мечту…
И хоть одну из Заповедей Бога!
Снимите маски «гордых» и «крутых»
Купите, хоть немножечко, Терпенья.
И ощутите сердцем, хоть на миг,
Всю прелесть и восторг благодаренья!
Сегодня, АКЦИЯ на Совесть и Любовь!
Притормозите «хаммер» свой, иль «буммер»!
Купите! И волнуйте свою кровь!
От этого ещё никто не умер!


Скрыть подпись


bondsun
№2 Отправлено: 1.12.2016 - 18:29


кучерявый

Группа: Потребители
Регистрация: 17.08.2009
Сообщений: 4182
Обитает:
Последний раз был:
cегодня в 15:31





Благодарствую, архив в порядке.


--------------------
Пусть рушится мир весь вокруг, пополам,
Пусть часто фортуна не прёт.
Не кофе нас должен бодрить по утрам,
А тот, кто его подаёт.

happy.gif

Скрыть подпись
Top
Alevtina
№3 Отправлено: 1.12.2016 - 19:05


Время камни собирать...

Группа: Аксакалы
Регистрация: 12.02.2009
Сообщений: 5559
Обитает:
Последний раз был:
вчера в 18:31




bondsun, благодарю за весть!


--------------------

Прохожие, купите Доброту!
Лишь за улыбку! Разве ж это много!
Исполните заветную мечту…
И хоть одну из Заповедей Бога!
Снимите маски «гордых» и «крутых»
Купите, хоть немножечко, Терпенья.
И ощутите сердцем, хоть на миг,
Всю прелесть и восторг благодаренья!
Сегодня, АКЦИЯ на Совесть и Любовь!
Притормозите «хаммер» свой, иль «буммер»!
Купите! И волнуйте свою кровь!
От этого ещё никто не умер!


Скрыть подпись
Top
spektor
№4 Отправлено: 17.02.2017 - 21:16


Гость

Группа: Потребители
Регистрация: 12.02.2017
Сообщений: 4
Обитает:
Последний раз был:
13.10.2017 - 21:41




Простмите, поторопился, нажал не ту кнопку. Верните, пожалуйста, в очередь.
Top
Alevtina
№5 Отправлено: 18.08.2017 - 18:45


Время камни собирать...

Группа: Аксакалы
Регистрация: 12.02.2009
Сообщений: 5559
Обитает:
Последний раз был:
вчера в 18:31




spektor, вернула. Потом, пишите в ПМ. Я случайно обнаружила Вашу просьбу....


--------------------

Прохожие, купите Доброту!
Лишь за улыбку! Разве ж это много!
Исполните заветную мечту…
И хоть одну из Заповедей Бога!
Снимите маски «гордых» и «крутых»
Купите, хоть немножечко, Терпенья.
И ощутите сердцем, хоть на миг,
Всю прелесть и восторг благодаренья!
Сегодня, АКЦИЯ на Совесть и Любовь!
Притормозите «хаммер» свой, иль «буммер»!
Купите! И волнуйте свою кровь!
От этого ещё никто не умер!


Скрыть подпись
Top
1 человек просматривает эту тему (1 гость)
« Предыдущая тема | Мир и люди искусства | Следующая тема »


 



[Script Execution time: 0,0503]   [22 queries used]   [GZIP enabled]