Заходят многие - остаются лучшие!
Здравствуйте Гость ( Вход | Регистрация ) Выслать повторно письмо для активации
Вход
Ваше имя Пароль Забыли пароль?
Запомнить Вас?
Войти скрытым?



 Правила раздела Новые сообщения раздела  


 

 Неуправляемый / Hard to Handle (1933), Джеймс Кэгни, Мэри Брайан / комедия
surzhoks
  №1 Отправлено: 14.10.2018 - 13:03


Живёт здесь

Группа: Аксакалы
Регистрация: 17.03.2008
Сообщений: 1100
Обитает:
Последний раз был:
13.12.2018 - 17:49




Неуправляемый / Hard to Handle


Страна: США
Студия: The Vitaphone Corporation, Warner Bros. Pictures
Жанр: комедия, мелодрама
Год выпуска: 1933
Продолжительность: 01:18:25
Режиссер: Мервин ЛеРой / Mervyn LeRoy

В ролях:
Джеймс Кэгни / James Cagney ... Lefty Merrill
Мэри Брайан / Mary Brian ... Ruth Waters
Аллен Дженкинс / Allen Jenkins ... Radio Announcer
Рут Доннелли / Ruth Donnelly ... Lil Waters
Клер Додд / Claire Dodd ... Marlene Reeves
Роберт МакУэйд / Robert McWade ... Charles Reeves
Дон Броди / Don Brodie ... Sound Man, в титрах не указан
Бертон Черчилль / Berton Churchill ... Col. H.D.X. Wells, в титрах не указан
Дэвисон Кларк / Davison Clark ... Federal Man #2, в титрах не указан
Клэй Клемент / Clay Clement ... Federal Man #1, в титрах не указан

Описание: Мелкий мошенник Лефти (”Левша”) Меррилл принял участие в организации танцевального марафона. В марафоне побеждает Рут Уотерс, которой полагается немаленький денежный приз. Но партнер Меррилла исчезает с деньгами ещё до окончания марафона, и тому приходится немало попотеть, чтобы расплатиться с Рут...
- Мэри Брайан заменила Кэрол Ломбард, которая отказалась от участия в фильме.
- Несмотря на прозвище ”Левша”, герой Джеймса Кэгни пользуется правой рукой.

Доп. информация:
Огромное спасибо всем причастным к релизу:
рип - Магда,
перевод и озвучивание фильма- Алексей Яковлев,
работа со звуком и реавторинг DVD- AlekceyR76
финансовая поддержка перевода и озвучивания фильма:
Магда, Lafajet, jasenka, yanaelisa, Floret, Ugo927, leoder, sindzi, борюська, Simpun, GalaUkr, HippopotamusIV, cementit, sapog1960, voostorg, елена 22

Архивы созданы RAR-архиватором с добавлением 3% на восстановление и снабжены sfv-проверочником.
Просьба к первому скачавшему отписаться о сохранности архивов на источнике раздачи.

Раздача рассчитана на 2 месяца. На просмотр линка и скачивание 5 дней!
В случае если вы встали в очередь, а затем отказываетесь от скачивания без объяснения причин, возможен отказ в последующих моих раздачах.



Полное имя :Hard to Handle.avi
Формат : AVI
Формат/Информация : Audio Video Interleave
Размер файла : 1,37 Гбайт
Продолжительность : 1 ч. 18 м.
Общий поток : 2502 Кбит/сек
Программа кодирования : VirtualDubMod 1.5.10.3 | www.virtualdub-fr.org || (build 2550/release)
Библиотека кодирования : VirtualDubMod build 2550/release

Видео
Идентификатор : 0
Формат : MPEG-4 Visual
Профиль формата : Advanced Simple@L5
Параметр BVOP формата : 2
Параметр QPel формата : Нет
Параметр GMC формата : Без точки перехода
Параметр матрицы формата : Default (H.263)
Идентификатор кодека : DX50
Идентификатор кодека/Подсказка : DivX 5
Продолжительность : 1 ч. 18 м.
Битрейт : 2104 Кбит/сек
Ширина : 640 пикселей
Высота : 480 пикселей
Соотношение сторон : 4:3
Частота кадров : 23,976 кадра/сек
Цветовое пространство : YUV
Субдискретизация насыщенности : 4:2:0
Битовая глубина : 8 бит
Тип развёртки : Прогрессивная
Метод сжатия : С потерями
Бит/(Пиксели*Кадры) : 0.286
Размер потока : 1,15 Гбайт (84%)
Библиотека кодирования : XviD 73

Аудио #1
Идентификатор : 1
Формат : AC-3
Формат/Информация : Audio Coding 3
Расширение режима : CM (complete main)
Параметр Endianness формата : Big
Идентификатор кодека : 2000
Продолжительность : 1 ч. 18 м.
Вид битрейта : Постоянный
Битрейт : 192 Кбит/сек
Каналы : 2 канала
Расположение каналов : Front: L R
Частота : 48,0 КГц
Битовая глубина : 16 бит
Метод сжатия : С потерями
Размер потока : 108 Мбайт (8%)
Выравнивание : Разделение по промежуткам
Продолжительность промежутка : 42 мс. (1,00 видеокадр)
Время предзагрузки промежутка : 500 мс.

Аудио #2
Идентификатор : 2
Формат : AC-3
Формат/Информация : Audio Coding 3
Расширение режима : CM (complete main)
Параметр Endianness формата : Big
Идентификатор кодека : 2000
Продолжительность : 1 ч. 18 м.
Вид битрейта : Постоянный
Битрейт : 192 Кбит/сек
Каналы : 2 канала
Расположение каналов : Front: L R
Частота : 48,0 КГц
Битовая глубина : 16 бит
Метод сжатия : С потерями
Размер потока : 108 Мбайт (8%)
Выравнивание : Разделение по промежуткам
Продолжительность промежутка : 42 мс. (1,00 видеокадр)
Время предзагрузки промежутка : 500 мс.




vjub58
№2 Отправлено: 14.10.2018 - 14:14


Практикующий эсквайр

Группа: Аксакалы
Регистрация: 6.12.2005
Сообщений: 4865
Обитает:
Последний раз был:
cегодня в 00:52




Спасибо, все ОК. pozdrav_buket.gif
Top
Dushechka_2017
№3 Отправлено: 14.10.2018 - 15:23


Прохожий

Группа: Потребители
Регистрация: 27.12.2017
Сообщений: 34
Обитает:
На форуме с:
cегодня в 06:30




Архивы в порядке. Спасибо за Джеймса Кегни!
Top
1 человек просматривает эту тему (1 гость)
« Предыдущая тема | Зарубежные фильмы | Следующая тема »


 



[Script Execution time: 0,0198]   [23 queries used]   [GZIP enabled]