Заходят многие - остаются лучшие!
Здравствуйте Гость ( Вход | Регистрация ) Выслать повторно письмо для активации
Вход
Ваше имя Пароль Забыли пароль?
Запомнить Вас?
Войти скрытым?



 Правила раздела Новые сообщения раздела  


 

 Моя девушка Сал / My Gal Sal (1942), Рита Хэйворт, Виктор Мэтьюр в мюзикле Ирвинга Каммингса
surzhoks
  №1 Отправлено: 14.10.2018 - 15:34


Живёт здесь

Группа: Аксакалы
Регистрация: 17.03.2008
Сообщений: 1100
Обитает:
Последний раз был:
13.12.2018 - 17:49




Моя девушка Сал / My Gal Sal


Раздача посвящена 100-летию Риты Хэйворт
(17 октября 1918 – 14 мая 1987)
Страна: США
Студия: 20th Century Fox Film Corporation
Жанр: мюзикл, комедия, биография
Год выпуска: 1942
Продолжительность: 01:43:36
Режиссер: Ирвинг Каммингс / Irving Cummings
Композитор: Ли Харлайн / Leigh Harline, Сирилл Дж. Мокридж / Cyril J. Mockridge

В ролях:
Рита Хэйворт / Rita Hayworth ... Sally Elliott
Виктор Мэтьюр / Victor Mature ... Paul Dresser
Джон Саттон / John Sutton ... Fred Haviland
Кэрол Лэндис / Carole Landis ... Mae Collins
Джеймс Глисон / James Gleason ... Pat Hawley
Фил Силверс / Phil Silvers ... Wiley
Уолтер Кэтлетт / Walter Catlett ... Col. Truckee
Мона Марис / Mona Maris ... Countess Rossini
Фрэнк Орт / Frank Orth ... McGuiness
Стэнли Эндрюс / Stanley Andrews ... Mr. Dreiser
Маргарет Моффатт / Margaret Moffat (в титрах: Margaret Moffat) ... Mrs. Dreiser
Либби Тейлор / Libby Taylor ... Ida

Описание: Пол Дрессер, талантливый автор песен, перезжает в Нью-Йорк, где каждая вторая его композиция становится хитом. Но со временем у него появляются и другие, куда более весомые причины остаться в городе больших возможностей - в первую очередь, прекрасная Салли Эллиотт, одна из самых известных в то время певиц в городе.
Дополнительная информация

- Настоящая фамилия Пола Дрессера Драйзер. Сценарий фильма основан на биографии Дрессера, написанной его братом Теодором Драйзером.
- Дон Амичи и Джордж Монтгомери изначально претендовали на роль Пола Дрессера.
- Салли Эллиот, которую играет Рита Хейворт - вымышленный персонаж. В реальной жизни «Салли» из песни Пола Дрессера «Моя девушка Сал» была, вероятно, Салли Уокер, миссионерка из Эвансвилла, штат Индиана, с которой у Дрессера был многолетний роман.
- Руководитель кинокомпании Дэррил Ф. Занук первоначально хотел, чтобы Кэрол Лэндис сыграла Салли Эллиот, но та отказалась красить свои волосы в рыжий цвет. Киномагнат тогда предложил ей роль второго плана. Элис Фэй, беременная своей первой дочерью, не смогла принять участие в съёмках. Бетти Грейбл, Айрин Данн и Мэй Уэст также отказались от этой роли. Тогда Дэррил Ф. Занук одолжил Риту Хейворт у кинокомпании Коламбия Пикчерз.

Доп. информация:
Огромное спасибо всем причастным к релизу:
рип - Магда,
перевод и озвучивание фильма - - Владимир Воронцов (-Доцент-),
работа со звуком и реавторинг DVD- AlekceyR76,
финансовая поддержка перевода и озвучивания фильма:
Магда, Lafajet, jasenka, yanaelisa, Ugo927, елена 22, leoder, exact, sindzi, борюська, Floret, keg38, voostorg, sapog1960, sin58, spartakeynoir, surzhoks, mumzik69

Архивы созданы RAR-архиватором с добавлением 3% на восстановление и снабжены sfv-проверочником.
Просьба к первому скачавшему отписаться о сохранности архивов на источнике раздачи.

Раздача рассчитана на 2 месяца. На просмотр линка и скачивание 5 дней!
В случае если вы встали в очередь, а затем отказываетесь от скачивания без объяснения причин, возможен отказ в последующих моих раздачах.



Полное имя :My Gal Sal.1942.avi
Формат : AVI
Формат/Информация : Audio Video Interleave
Размер файла : 1,60 Гбайт
Продолжительность : 1 ч. 43 м.
Общий поток : 2209 Кбит/сек
Программа кодирования : VirtualDubMod 1.5.4.1 (build 2178/release)
Библиотека кодирования : VirtualDubMod build 2178/release

Видео
Идентификатор : 0
Формат : MPEG-4 Visual
Профиль формата : Advanced Simple@L5
Параметр BVOP формата : 2
Параметр QPel формата : Нет
Параметр GMC формата : Без точки перехода
Параметр матрицы формата : Default (H.263)
Идентификатор кодека : DX50
Идентификатор кодека/Подсказка : DivX 5
Продолжительность : 1 ч. 43 м.
Битрейт : 1811 Кбит/сек
Ширина : 640 пикселей
Высота : 480 пикселей
Соотношение сторон : 4:3
Частота кадров : 23,976 кадра/сек
Цветовое пространство : YUV
Субдискретизация насыщенности : 4:2:0
Битовая глубина : 8 бит
Тип развёртки : Прогрессивная
Метод сжатия : С потерями
Бит/(Пиксели*Кадры) : 0.246
Размер потока : 1,31 Гбайт (82%)
Библиотека кодирования : XviD 73

Аудио #1
Идентификатор : 1
Формат : AC-3
Формат/Информация : Audio Coding 3
Расширение режима : CM (complete main)
Параметр Endianness формата : Big
Идентификатор кодека : 2000
Продолжительность : 1 ч. 43 м.
Вид битрейта : Постоянный
Битрейт : 192 Кбит/сек
Каналы : 2 канала
Расположение каналов : Front: L R
Частота : 48,0 КГц
Битовая глубина : 16 бит
Метод сжатия : С потерями
Размер потока : 142 Мбайт (9%)
Выравнивание : Разделение по промежуткам
Продолжительность промежутка : 42 мс. (1,00 видеокадр)
Время предзагрузки промежутка : 500 мс.

Аудио #2
Идентификатор : 2
Формат : AC-3
Формат/Информация : Audio Coding 3
Расширение режима : CM (complete main)
Параметр Endianness формата : Big
Идентификатор кодека : 2000
Продолжительность : 1 ч. 43 м.
Вид битрейта : Постоянный
Битрейт : 192 Кбит/сек
Каналы : 2 канала
Расположение каналов : Front: L R
Частота : 48,0 КГц
Битовая глубина : 16 бит
Метод сжатия : С потерями
Размер потока : 142 Мбайт (9%)
Выравнивание : Разделение по промежуткам
Продолжительность промежутка : 42 мс. (1,00 видеокадр)
Время предзагрузки промежутка : 500 мс.




vjub58
№2 Отправлено: 14.10.2018 - 16:29


Практикующий эсквайр

Группа: Аксакалы
Регистрация: 6.12.2005
Сообщений: 4865
Обитает:
Последний раз был:
cегодня в 00:52




Спасибо, все ОК. pozdrav_buket.gif
Top
pushistiy
№3 Отправлено: 15.10.2018 - 17:33


Старожил

Группа: Потребители
Регистрация: 8.12.2013
Сообщений: 875
Последний раз был:
вчера в 17:25




Надо скачать, исключительно, из-за бесподобного качества. happy_fly.gif
P.S. Дальше посмотрим...что с этим делать. uzhas.gif
P.P.S....и не открывается, однако...Не могу понять пароля (может тупой, что-ли) pain25.gif
P.P.P.S wow.gif м-да, дошло с 15-й попытки, что l -это маленькая L, а то уж я что только не перепробовал (будь я проклят). ponder1[1].gif


Это сообщение отредактировал pushistiy - 15.10.2018 - 18:04
Top
1 человек просматривает эту тему (1 гость)
« Предыдущая тема | Зарубежные фильмы | Следующая тема »


 



[Script Execution time: 0,0304]   [23 queries used]   [GZIP enabled]