Заходят многие - остаются лучшие!
Здравствуйте Гость ( Вход | Регистрация ) Выслать повторно письмо для активации
Вход
Ваше имя Пароль Забыли пароль?
Запомнить Вас?
Войти скрытым?



Новые сообщения раздела  

 

 Библейский сюжет. Константин Симонов. Жди меня (2020), Авторская программа Дмитрия Менделеева
Alevtina
  №1 Отправлено: 27.05.2020 - 11:28


Время камни собирать...

Группа: Аксакалы
Регистрация: 12.02.2009
Сообщений: 5801
Обитает:
Последний раз был:
cегодня в 16:44




Библейский сюжет. Константин Симонов. "Жди меня"



В рамках проекта -

Год выпуска: 2020

Страна: Россия

Режиссер: Ольга Жукова

Студия: ООО Студия "Неофит"

Автор и ведущий: Дмитрий Менделеев


Обращение великих художников к Библии никогда не заканчивалось только иллюстрацией того или иного сюжета Вечной Книги. Оно всегда предполагало личное осмысление. Художник выбирал библейскую историю, чтобы рассказать о себе, о своем времени, чтобы глубже постичь смысл происходящего.
Язык образов Святого Писания был универсален и понятен для всех. Но теперь для нас этот язык наполовину забыт. Мы уже не можем так ясно, с листа, читать всё, что говорили в своих произведениях художники, поэты, композиторы и писатели прошлого. Мы более опираемся на чувственное восприятие, которое все же является только частью замысла, его внешней стороной. В программе "Библейский сюжет" делается попытка соединить "прекрасного разрозненные части", по-другому взглянуть на всемирно известные произведения искусства, рассказать о судьбе их создателей.


Описание:

Уже 23 июня 41-го года его вызвали в политуправление и командировали в Брест. До Бреста он не доехал. Кругом – неразбериха, одни военные возвращаются из отпуска, другие уже бегут им навстречу, отстав от своих частей; связи почти нет, авианалеты, беженцы; рядом трусость и героизм – всё, что он пережил в первые дни войны, он опишет в "Живых и мёртвых" :

"Ты помнишь, Алеша, дороги Смоленщины,
Как шли бесконечные, злые дожди,
Как кринки несли нам усталые женщины,
Прижав, как детей, от дождя их к груди,
Как слёзы они вытирали украдкой,
Как вслед нам шептали: "Господь вас спаси!"…

А в конце июля он вернулся в Москву и, не застав Серову – она отвозила в эвакуацию родителей и сына – за день, на даче в Переделкине, написал стихотворение, которое, без преувеличения, стало молитвой Великой Отечественной войны – "Жди меня...".


Media-info:

Format : AVI
Format/Info : Audio Video Interleave
File size : 361 MiB
Duration : 26mn 5s
Overall bit rate : 1 935 Kbps

Video
ID : 0
Format : MPEG-4 Visual
Format profile : Advanced Simple@L5
Format settings, BVOP : Yes
Format settings, QPel : No
Format settings, GMC : No warppoints
Format settings, Matrix : Default (H.263)
Codec ID : XVID
Codec ID/Hint : XviD
Duration : 26mn 5s
Bit rate : 1 794 Kbps
Width : 720 pixels
Height : 400 pixels
Display aspect ratio : 16:9
Frame rate : 25.000 fps
Color space : YUV
Chroma subsampling : 4:2:0
Bit depth : 8 bits
Scan type : Progressive
Bits/(Pixel*Frame) : 0.249
Stream size : 335 MiB (93%)
Writing library : XviD 64

Audio
ID : 1
Format : MPEG Audio
Format version : Version 1
Format profile : Layer 3
Codec ID : 55
Codec ID/Hint : MP3
Duration : 26mn 4s
Bit rate mode : Constant
Bit rate : 128 Kbps
Channel(s) : 2 channels
Sampling rate : 44.1 KHz
Stream size : 23.9 MiB (7%)
Alignment : Split accross interleaves
Interleave, duration : 26 ms (0.65 video frame)


Cкриншоты:







Записались на автоматическое включение в очередь:
baziss, Snara, valbar, vyur, RussianGuy, Marrina, медикус, mosk7, Nadejdaenergia, ILIA, Masjanja, ajlinn, oldfanat, bondsun, mikhailk, medandrey, oster47, Tanjusha, andrusenko, rittaa, medush, rucula

Если вы хотите, чтобы вас автоматически ставили в очередь на следующие выпуски данного цикла, - сообщите об этом в теме последней раздачи.




Это сообщение отредактировал Alevtina - 6.06.2020 - 09:32


--------------------

Прохожие, купите Доброту!
Лишь за улыбку! Разве ж это много!
Исполните заветную мечту…
И хоть одну из Заповедей Бога!
Снимите маски «гордых» и «крутых»
Купите, хоть немножечко, Терпенья.
И ощутите сердцем, хоть на миг,
Всю прелесть и восторг благодаренья!
Сегодня, АКЦИЯ на Совесть и Любовь!
Притормозите «хаммер» свой, иль «буммер»!
Купите! И волнуйте свою кровь!
От этого ещё никто не умер!


Скрыть подпись


кинолюбитель
№2 Отправлено: 27.05.2020 - 12:33


Завсегдатай

Группа: Активисты
Регистрация: 27.07.2009
Сообщений: 403
Обитает:
Последний раз был:
cегодня в 17:18




Архивы ОК
Top
Alevtina
№3 Отправлено: 27.05.2020 - 14:33


Время камни собирать...

Группа: Аксакалы
Регистрация: 12.02.2009
Сообщений: 5801
Обитает:
Последний раз был:
cегодня в 16:44




кинолюбитель, благодарю за сообщение!!!


--------------------

Прохожие, купите Доброту!
Лишь за улыбку! Разве ж это много!
Исполните заветную мечту…
И хоть одну из Заповедей Бога!
Снимите маски «гордых» и «крутых»
Купите, хоть немножечко, Терпенья.
И ощутите сердцем, хоть на миг,
Всю прелесть и восторг благодаренья!
Сегодня, АКЦИЯ на Совесть и Любовь!
Притормозите «хаммер» свой, иль «буммер»!
Купите! И волнуйте свою кровь!
От этого ещё никто не умер!


Скрыть подпись
Top
1 человек просматривает эту тему (1 гость)
« Предыдущая тема | Мир и люди искусства | Следующая тема »


 



[Script Execution time: 0,0420]   [22 queries used]   [GZIP enabled]