Заходят многие - остаются лучшие!
Здравствуйте Гость ( Вход | Регистрация ) Выслать повторно письмо для активации
Вход
Ваше имя Пароль Забыли пароль?
Запомнить Вас?
Войти скрытым?



 Правила раздела Новые сообщения раздела  


 

 Белый рояль (1968), Комедия,музыкальный;Реж-М.Махмудов;Роли-С.Азаматова,Р.Ахметов,Н.Шацкая
SanSan48
  №1 Отправлено: 22.09.2017 - 10:18


"Спартак" - ЧЕМПИОН!!!

Группа: Пользователи
Регистрация: 28.12.2009
Сообщений: 1907
Обитает:
Последний раз был:
cегодня в 11:25




Белый рояль (1968)



Предыдущие раздачи:
04.11.2016 (SATrip)
22.08.2011 (DVDrip ???)
28.05.2007 (TVrip)
28.06.2007 (TVrip) (Архив)

Жанр: Комедия, музыкальный
Выпущено: СССР, Таджикфильм
Год выпуска: 1968
Премьера (СССР): 30 июня 1969
Сценарист: Тимур Зульфикаров
Оператор: Ибрагим Барамыков
Композиторы: Александр Зацепин
Художники: Хусейн Бакаев
Монтажёр: Наталья Логинова

Режиссёры: Мукадас Махмудов

В ролях:
Сталина Азаматова … Лола, племянница Юсуфа Ахмедова (поёт Аида Ведищева)
Нина Шацкая … Алла Сергеевна Арсеньева, музыковед из музея музыкальных инструментов
Руслан Ахметов … Шоди, молодой композитор (поёт Муслим Магомаев)
Фрунзик (Мгер) Мкртчян … Юсуф Юсуфович Ахмедов, известный композитор (дублирует Юрий Саранцев)
Марьям Якубова … Малохат, жена Ахмедова
Абдульхайр Касымов … Бобо-Касым
Тамара Кокова … Розияхон, в сарае у которой хранился белый рояль
Алексей Смирнов … Вожак, бюро грузчиков "Добрые услуги"
Акмурад Бяшимов … Али, грузчик бюро "Добрые услуги"
Б.Хамидов … Вали, бюро "Добрые услуги"
Махмуд Тахири … директор Дворца культуры
Расми Джабраилов … Аристарх Платоныч, директор музея музыкальных инструментов

Описание: В поисках уникального белого рояля в Душанбе приезжает музыковед Алла Арсеньева и знакомится с известным композитором Юсуфом Юсуфовичем Ахмедовым, его юным коллегой Шоди, очаровательной певицей Лолой и старушкой-молчуньей Розией-биби. Не найдя общего языка с грузчиками, она попадает в милицию и начинает активно сопротивляться каверзам судьбы. После ряда приключений рояль находится и благополучно перевозится в музей музыкальных инструментов…

Дополнительная информация: Релиз:

Автор рипа: pmv

Большое спасибо за:
- исходный DVD5 и разрешение на раздачу - Доброму человеку

* Представленный в раздаче фильм из собрания ГФФ, выпущен в подарочном исполнении и является раритетом.

* Фильм раздаётся исключительно в ознакомительных целях и коммерческому распространению не подлежит. Поэтому ПРОСЬБА к скачавшим фильм НЕ РАЗДАВАТЬ данный рип на каких-либо сторонних ресурсах.

* Роль исполняемую Фрунзиком Мкртчяном дублировал Юрий Саранцев.
* Прокат в СССР в 1968 году - 27,2 млн. зрителей.
* Фильм насыщен музыкой и песнями, которые написали Александр Зацепин (музыка) и Онегин Гаджикасимов Юсиф оглы (стихи). Исполнители:
Аида Ведищева … поёт за Сталину Азаматову
- танго-пародия "Я буду ждать тебя возле пальм у трёх дорог";
- "Первая весна" ("Знай, пришла она,первая весна, лучшая весна,что зовут любовью");
- "Дорожная" ("Бежит, бежит, бежит дорога, не кончается...");
- "Песня о Душанбе"
("Пусть где-то на земле
Редкой красоты есть города,
Но только Душанбе в сердце сохраню я навсегда").

Муслим Магомаев … поёт за Руслана Ахметова
- песня "Пусть она светит всем,
Как волшебная лампа в ночи..."

ВИА "Квартет «Аккорд»" в составе:
Владислав Лынковский, Инна Мясникова, Зоя Харабадзе, Шота Харабадзе
- "Едем мы";
- "Грузчики"
("Грузчики - люди дружные,
обществу очень нужные");
- "Гарем";
- твист (вокализ).

IMDb = 6,5/10 (14) - http://www.imdb.com/title/tt0312454/
Кинопоиск = 6.202 (147) - https://www.kinopoisk.ru/film/belyy-royal-1968-46074/

ВНИМАНИЕ!!! РИП ФОРМАТА mkv (кодек H.264) ВОСПРОИЗВОДИТСЯ НЕ НА ВСЕХ БЫТОВЫХ ВИДЕОПЛЕЕРАХ!!!

Параметры файла:
Название: Белый рояль (1968).mkv
Качество видео: DVDrip
Формат видео: MKV
Размер: 1,08 ГБ (1 163 227 243 байт)
Продолжительность: 01:12:22
Видео: AVC (H264), 688@747x560 (1.33:1), 25 fps, 1950 kb/s, 0.202 Bits/Pixel
Аудио: AC3, 48 KHz, stereo (2 ch), 192 kbps



General
Unique ID : 185263149239745493333161328237885990956 (0x8B606279D053A91AA7C1807F4FA3282C)
Complete name : D:\torrents\Белый рояль (1968).mkv
Format : Matroska
Format version : Version 4 / Version 2
File size : 1.08 GiB
Duration : 1 h 12 min
Overall bit rate : 2 143 kb/s
Encoded date : UTC 2017-09-20 14:41:37
Writing application : mkvmerge v15.0.0 ('Duel with the Devil') 64-bit
Writing library : libebml v1.3.5 + libmatroska v1.4.5

Video
ID : 1
Format : AVC
Format/Info : Advanced Video Codec
Format profile : High@L4.1
Format settings, CABAC : Yes
Format settings, ReFrames : 16 frames
Codec ID : V_MPEG4/ISO/AVC
Duration : 1 h 12 min
Bit rate : 1 950 kb/s
Width : 688 pixels
Height : 560 pixels
Display aspect ratio : 4:3
Original display aspect ratio : 1.229
Frame rate mode : Constant
Frame rate : 25.000 FPS
Color space : YUV
Chroma subsampling : 4:2:0
Bit depth : 8 bits
Scan type : Progressive
Bits/(Pixel*Frame) : 0.202
Stream size : 1 009 MiB (91%)
Writing library : x264 core 130 r2273 b3065e6
Encoding settings : cabac=1 / ref=16 / deblock=1:0:0 / analyse=0x3:0x133 / me=umh / subme=10 / psy=1 / psy_rd=1.00:0.00 / mixed_ref=1 / me_range=24 / chroma_me=1 / trellis=2 / 8x8dct=1 / cqm=0 / deadzone=21,11 / fast_pskip=1 / chroma_qp_offset=-2 / threads=48 / lookahead_threads=4 / sliced_threads=0 / nr=0 / decimate=1 / interlaced=0 / bluray_compat=0 / constrained_intra=0 / bframes=8 / b_pyramid=2 / b_adapt=2 / b_bias=0 / direct=3 / weightb=1 / open_gop=0 / weightp=2 / keyint=250 / keyint_min=25 / scenecut=40 / intra_refresh=0 / rc_lookahead=60 / rc=2pass / mbtree=1 / bitrate=1950 / ratetol=1.0 / qcomp=0.60 / qpmin=0 / qpmax=69 / qpstep=4 / cplxblur=20.0 / qblur=0.5 / ip_ratio=1.40 / aq=1:1.00
Language : Russian
Default : Yes
Forced : No

Audio
ID : 2
Format : AC-3
Format/Info : Audio Coding 3
Mode extension : CM (complete main)
Format settings, Endianness : Big
Codec ID : A_AC3
Duration : 1 h 12 min
Bit rate mode : Constant
Bit rate : 192 kb/s
Channel(s) : 2 channels
Channel positions : Front: L R
Sampling rate : 48.0 kHz
Frame rate : 31.250 FPS (1536 spf)
Bit depth : 16 bits
Compression mode : Lossy
Stream size : 99.4 MiB (9%)
Language : Russian
Default : Yes
Forced : No








rpm68, SATRip, mpeg, 704x576, 2.14 GB < > CaCa48, DVDRip, mkv, 747x560, 1.08 GB
http://screenshotcomparison.com/comparison/118045


Cheef mate, DVB, MPEG-PS, 720x576, 1.89 GB < > CaCa48, DVDRip, mkv, 747x560, 1.08 GB
http://screenshotcomparison.com/comparison/118046


МОИ РАЗДАЧИ НА ФЕНИКСе: ЗДЕСЬ




Это сообщение отредактировал SanSan48 - 22.09.2017 - 10:25


--------------------
"Спартак" - ЧЕМПИОН!!!

Скрыть подпись
bondsun
№2 Отправлено: 22.09.2017 - 11:03


кучерявый

Группа: Потребители
Регистрация: 17.08.2009
Сообщений: 4385
Обитает:
Последний раз был:
вчера в 18:28





Благодарствую, архивы в порядке.


--------------------
Пусть рушится мир весь вокруг, пополам,
Пусть часто фортуна не прёт.
Не кофе нас должен бодрить по утрам,
А тот, кто его подаёт.

happy.gif

Скрыть подпись
Top
SanSan48
№3 Отправлено: 22.09.2017 - 11:18


"Спартак" - ЧЕМПИОН!!!

Группа: Пользователи
Регистрация: 28.12.2009
Сообщений: 1907
Обитает:
Последний раз был:
cегодня в 11:25




Цитата
( bondsun @ 22.09.2017 - 11:03)
Благодарствую, архивы в порядке.

bondsun, Спасибо за сообщение!

Приятного всем просмотра!


--------------------
"Спартак" - ЧЕМПИОН!!!

Скрыть подпись
Top
1 человек просматривает эту тему (1 гость)
« Предыдущая тема | Отечественное кино | Следующая тема »


 



[Script Execution time: 0,0339]   [23 queries used]   [GZIP enabled]