Заходят многие - остаются лучшие!
Здравствуйте Гость ( Вход | Регистрация ) Выслать повторно письмо для активации
Вход
Ваше имя Пароль Забыли пароль?
Запомнить Вас?
Войти скрытым?



Новые сообщения раздела  

 

 Монастырские сады Валаама (2014), RTG Production Studios
bornik
  №1 Отправлено: 4.07.2018 - 17:05


Воспоминания - это богатства старости.

Группа: Модераторы
Регистрация: 18.08.2008
Сообщений: 1036
Обитает:
Последний раз был:
cегодня в 03:34




Монастырские сады Валаама (2014)



«Монастырские сады Валаама» — живописный оазис в неспокойных водах Ладожского озера. Удаленные от Большой земли, острова стали домом для тех, кто ищет общения с Богом, для православных монахов. Условия для жизни и сейчас здесь непростые, а несколько сот лет назад поселиться на архипелаге могли только настоящие подвижники.
Монахам помогали молитвы и упорный труд.
По уставу никто из насельников монастыря не должен был пребывать в праздности. Результаты их усилий до сих пор можно видеть на Валааме.


Оригинальное название: Монастырские сады Валаама
Год выпуска: 2013
Жанр: Документальный, познавательный
Выпущено: Россия, , RTG Production Studios
Продолжительность: 00:25:34
Субтитры: Русские (мои)


Режиссёр: Сергей Ярмоленко / Sergey Yermolenko
Сценаристы: Сергей Зорькин / Sergey Zorkin

Ведущий: Александр Уваров / Alexander Uvarov


Описание: Валаам – райский сад, созданный руками монахов. Скалистая местность, камни - почва на архипелаге не очень-то подходила для обустройства садов. Тем не менее, великими трудами местных иноков почву собирали со всего острова в места закладки садов, а их на Валааме три (Верхний, Средний и Нижний). Часть земли привезли и с материка. В садах высаживали различные растения со всего мира: и американские деревья, в том числе клён канадский, и сосну кедровую сибирскую, и кедровый стланик, яблони, груши разных сортов. Множество разных трав, кустарников, и даже виноград! Притом, что это русский север, и климат там достаточно холодный.
Этот документальный фильм - рассказ о монастырских садах Валаама.
Зрителям предлагается совершить небольшую видеоэкскурсию и узнать для себя немало нового и интересного!









General
Complete name : C:\DVD documental fimls\RTG\Монастырские сады Валаама\Монастырские сады Валаама (2014).avi
Format : AVI
Format/Info : Audio Video Interleave
File size : 403 MiB
Duration : 25mn 34s
Overall bit rate : 2 205 Kbps
Writing application : VirtualDubMod 1.5.10.2 (build 2540/release)
Writing library : VirtualDubMod build 2540/release

Video
ID : 0
Format : MPEG-4 Visual
Format profile : Advanced Simple@L5
Format settings, BVOP : 2
Format settings, QPel : No
Format settings, GMC : No warppoints
Format settings, Matrix : Default (H.263)
Muxing mode : Packed bitstream
Codec ID : XVID
Codec ID/Hint : XviD
Duration : 25mn 34s
Bit rate : 2 003 Kbps
Width : 720 pixels
Height : 400 pixels
Display aspect ratio : 16:9
Frame rate : 25.000 fps
Color space : YUV
Chroma subsampling : 4:2:0
Bit depth : 8 bits
Scan type : Progressive
Compression mode : Lossy
Bits/(Pixel*Frame) : 0.278
Stream size : 366 MiB (91%)
Writing library : XviD 65

Audio
ID : 1
Format : MPEG Audio
Format version : Version 1
Format profile : Layer 3
Codec ID : 55
Codec ID/Hint : MP3
Duration : 25mn 34s
Bit rate mode : Constant
Bit rate : 192 Kbps
Channel(s) : 2 channels
Sampling rate : 48.0 KHz
Compression mode : Lossy
Stream size : 35.1 MiB (9%)
Alignment : Aligned on interleaves
Interleave, duration : 40 ms (1.00 video frame)
Interleave, preload duration : 504 ms
Writing library : LAME3.98r
Encoding settings : -m s -V 4 -q 3 -lowpass 18.6 -b 192


=================================

Исходником послужил релиз HDTV, найденный на просторах инета!

Архивы созданы RAR-архиватором с добавлением 3% на восстановление и снабжены sfv-проверочником.
Просьба к первому скачавшему отписаться о сохранности архивов на источнике раздачи.


ПРИЯТНОГО ВСЕМ ПРОСМОТРА !!!




--------------------
Безоблачная старость – это миф,
Поскольку наша память – ширь морская,
И к ночи начинается прилив,
Со дна обломки прошлого таская.
Игорь Губерман

Скрыть подпись


lmilchin
№2 Отправлено: 4.07.2018 - 19:14


Посетитель

Группа: Форумчане
Регистрация: 12.11.2009
Сообщений: 175
Обитает:
Последний раз был:
cегодня в 15:45




Спасибо, bornik, архив в порядке.
Top
bornik
№3 Отправлено: 4.07.2018 - 19:42


Воспоминания - это богатства старости.

Группа: Модераторы
Регистрация: 18.08.2008
Сообщений: 1036
Обитает:
Последний раз был:
cегодня в 03:34




Цитата
( lmilchin @ 4.07.2018 - 19:14)
Спасибо, bornik, архив в порядке.

И Вам, lmilchin, спасибо за добрую весть. happy_fly.gif


--------------------
Безоблачная старость – это миф,
Поскольку наша память – ширь морская,
И к ночи начинается прилив,
Со дна обломки прошлого таская.
Игорь Губерман

Скрыть подпись
Top
1 человек просматривает эту тему (1 гость)
« Предыдущая тема | Мир вокруг нас | Следующая тема »


 



[Script Execution time: 0,0398]   [22 queries used]   [GZIP enabled]