Заходят многие - остаются лучшие!
Здравствуйте Гость ( Вход | Регистрация ) Выслать повторно письмо для активации
Вход
Ваше имя Пароль Забыли пароль?
Запомнить Вас?
Войти скрытым?



Новые сообщения раздела  

 

 Валаамский монастырь. Зима (2013), RTG Production Studios
bornik
  №1 Отправлено: 3.07.2018 - 15:52


Воспоминания - это богатства старости.

Группа: Модераторы
Регистрация: 18.08.2008
Сообщений: 1036
Обитает:
Последний раз был:
cегодня в 15:02




Валаамский монастырь. Зима (2013)



«Валаамский монастырь» — у Валаама богатая многовековая история. Окруженный со всех сторон водой, удалённый от мирской суеты, этот остров словно создан для тихой, созерцательной жизни. Неописуемая красота дикой северной природы, бескрайние просторы Ладожского озера всегда привлекали путешественников. В этой тишине, нарушаемой лишь иногда криками чаек и сигналом подплывающих пароходов, кажется, что можно услышать молитву монахов. Джеймс Браун в своем цикле путешествий по России не мог обойти стороной таинственный и прекрасный Валаам.
Но Валаам знаменит не только природным красотами. Многие века он был православной святыней с богатыми монастырскими традициями и непростой историей. Дату Валаамского монастыря относят к Х веку, когда на Русь из Византии пришло множество монахов-миссионеров.
Основателями его считаются иноки Сергий и Герман, прибывшие с востока и поселившиеся на одном из скалистых островов архипелага и положившие начало монашескому братству. Новая обитель быстро развивалась, появлялись дороги, мосты, хозяйственные постройки, возводились скиты, и в XIV веке Валаамский монастырь уже называли "Великою честною лаврою".

Оригинальное название: Валаамский монастырь. Зима
Год выпуска: 2013
Жанр: Документальный, познавательный
Выпущено: Россия, , RTG Production Studios
Продолжительность: 00:25:20
Субтитры: Русские (мои)

Режиссёр: Сергей Ярмоленко / Sergey Yermolenko
Сценаристы: Александр Снегирёв / Alexander Snegiryev
Сергей Зорькин / Sergey Zorkin


Ведущий: Александр Уваров / Alexander Uvarov

Описание: Один зимний день в Спасо-Преображенском Валаамском мужском монастыре похож на другой, но в размеренной, неспешной жизни иноков нет ничего скучного. Веками здесь сохраняются традиции русского монашества. Православная святыня как светоч привлекала и привлекает на далекие ладожские острова тысячи людей. Обитель за свою долгую историю не раз опустошалась, монахам приходилось на десятки лет покидать обетованную землю. Но вновь и вновь иноческая жизнь на Валааме возрождалась. Так произошло и в конце 20 века после периода советской власти. Сейчас Спасо-Преображенский Валаамский мужской монастырь снова называют центром духовной жизни России.
Зрителям предлагается совершить небольшую видеоэкскурсию и узнать для себя немало нового и интересного!









General
Complete name : C:\DVD documental fimls\RTG\Валаамский монастырь\Валаамский монастырь. Зима (2013).avi
Format : AVI
Format/Info : Audio Video Interleave
File size : 399 MiB
Duration : 25mn 20s
Overall bit rate : 2 203 Kbps
Writing application : VirtualDubMod 1.5.10.2 (build 2540/release)
Writing library : VirtualDubMod build 2540/release

Video
ID : 0
Format : MPEG-4 Visual
Format profile : Advanced Simple@L5
Format settings, BVOP : 2
Format settings, QPel : No
Format settings, GMC : No warppoints
Format settings, Matrix : Default (H.263)
Muxing mode : Packed bitstream
Codec ID : XVID
Codec ID/Hint : XviD
Duration : 25mn 20s
Bit rate : 2 002 Kbps
Width : 720 pixels
Height : 400 pixels
Display aspect ratio : 16:9
Frame rate : 25.000 fps
Color space : YUV
Chroma subsampling : 4:2:0
Bit depth : 8 bits
Scan type : Progressive
Compression mode : Lossy
Bits/(Pixel*Frame) : 0.278
Stream size : 363 MiB (91%)
Writing library : XviD 65

Audio
ID : 1
Format : MPEG Audio
Format version : Version 1
Format profile : Layer 3
Codec ID : 55
Codec ID/Hint : MP3
Duration : 25mn 20s
Bit rate mode : Constant
Bit rate : 192 Kbps
Channel(s) : 2 channels
Sampling rate : 48.0 KHz
Compression mode : Lossy
Stream size : 34.8 MiB (9%)
Alignment : Aligned on interleaves
Interleave, duration : 40 ms (1.00 video frame)
Interleave, preload duration : 504 ms
Writing library : LAME3.98r
Encoding settings : -m s -V 4 -q 3 -lowpass 18.6 -b 192


=================================

Исходником послужил релиз HDTV, найденный на просторах инета!

Архивы созданы RAR-архиватором с добавлением 3% на восстановление и снабжены sfv-проверочником.
Просьба к первому скачавшему отписаться о сохранности архивов на источнике раздачи.


ПРИЯТНОГО ВСЕМ ПРОСМОТРА !!!




--------------------
Безоблачная старость – это миф,
Поскольку наша память – ширь морская,
И к ночи начинается прилив,
Со дна обломки прошлого таская.
Игорь Губерман

Скрыть подпись


lmilchin
№2 Отправлено: 3.07.2018 - 22:43


Посетитель

Группа: Форумчане
Регистрация: 12.11.2009
Сообщений: 175
Обитает:
Последний раз был:
cегодня в 18:49




Спасибо bornik. Архив распаковался без проблем.
Top
bornik
№3 Отправлено: 4.07.2018 - 02:13


Воспоминания - это богатства старости.

Группа: Модераторы
Регистрация: 18.08.2008
Сообщений: 1036
Обитает:
Последний раз был:
cегодня в 15:02




Цитата
( lmilchin @ 3.07.2018 - 22:43)
Спасибо bornik. Архив распаковался без проблем.

И Вам, lmilchin, спасибо за добрую весть. happy_fly.gif


--------------------
Безоблачная старость – это миф,
Поскольку наша память – ширь морская,
И к ночи начинается прилив,
Со дна обломки прошлого таская.
Игорь Губерман

Скрыть подпись
Top
1 человек просматривает эту тему (1 гость)
« Предыдущая тема | Мир вокруг нас | Следующая тема »


 



[Script Execution time: 0,0196]   [22 queries used]   [GZIP enabled]