Заходят многие - остаются лучшие!
Здравствуйте Гость ( Вход | Регистрация ) Выслать повторно письмо для активации
Вход
Ваше имя Пароль Забыли пароль?
Запомнить Вас?
Войти скрытым?



 Правила раздела Новые сообщения раздела  


 

 Бог – мой второй пилот / God Is My Co-Pilot (1945), Дэннис Морган, Дэйн Кларк, Рэймонд Мэсси / военный, драма
surzhoks
  №1 Отправлено: 14.04.2018 - 12:22


Живёт здесь

Группа: Аксакалы
Регистрация: 17.03.2008
Сообщений: 1070
Обитает:
Последний раз был:
вчера в 21:43




Бог – мой второй пилот / God Is My Co-Pilot



Страна: США
Студия: Warner Bros.
Жанр: военный, биография, драма
Год выпуска: 1945
Продолжительность: 01:28:04
Режиссер: Роберт Флори / Robert Florey
Сценарий: Уильям Фолкнер / William Faulkner, Эбем Финкел / Abem Finkel, Питер Милн / Peter Milne, Роберт Ли Скотт мл. / Robert Lee Scott Jr.
Композитор: Франц Ваксман / Franz Waxman

В ролях:
Дэннис Морган / Dennis Morgan ... Col. Robert Lee Scott
Дэйн Кларк / Dane Clark ... Johnny Petach
Рэймонд Мэсси / Raymond Massey ... Maj. Gen. Claire L. Chennault
Алан Хейл / Alan Hale ... Big Mike Harrigan
Андреа Кинг / Andrea King ... Catherine Scott
Джон Риджли / John Ridgely ... David 'Tex' Hill
Стэнли Риджес/ Stanley Ridges ... Col. Merian 'Steve' Cooper
Крэйг Стивенс / Craig Stevens ... Ed Rector
Уоррен Дуглас / Warren Douglas ... Bob Neale
Марк Стивенс / Mark Stevens ... Sgt. Baldridge (as Stephen Richards)
Чарльз Смит / Charles Smith ... Pvt. Motley
Майнор Уотсон / Minor Watson... Col. Caleb V. Haynes
Ричард Лу / Richard Loo ... Tokyo Joe

Описание: Роберт Л. Скотт всю жизнь мечтал летать на истребителях, но когда началась война ему поручили транспортные перелёты через горы в Китай. Он уговаривает генерала Шено позволить ему летать со знаменитыми Летающими тиграми, героями, начавшими сражаться с японцами задолго до Перл Харбора. Скотту выпадает шанс участвовать в сражениях и в небе он встречается с опаснейшим из японских летчиков Токио Джо.

Доп. информация:
Огромное спасибо всем причастным к релизу:
рип - alf62,
перевод и озвучивание фильма - А.Багичев,
работа со звуком - Нордер,
организация проекта по переводу, реавторинг исходного DVD - alinto,
финансовая поддержка перевода и озвучивания фильма:
alinto, $Shorox, Магда, jasenka, Ихтыргым, Cybernn, Drenkens, Alf62, Simpun, eagle64, умелец54, super2123, Der eiserne Wolf, gerald.shteinberg, Бурый Иван, ender58

Архивы созданы RAR-архиватором с добавлением 3% на восстановление и снабжены sfv-проверочником.
Просьба к первому скачавшему отписаться о сохранности архивов на источнике раздачи.

Раздача рассчитана на 2 месяца. На просмотр линка и скачивание 5 дней!
В случае если вы встали в очередь, а затем отказываетесь от скачивания без объяснения причин, возможен отказ в последующих моих раздачах.



Полное имя :Bog.moj.vtoroj.pilot.1945.DivX.DVDRip.alf62.avi
Формат : AVI
Формат/Информация : Audio Video Interleave
Размер файла : 1,42 Гбайт
Продолжительность : 1 ч. 28 м.
Общий поток : 2301 Кбит/сек
Программа кодирования : VirtualDubMod 1.5.10.3 | www.virtualdub-fr.org || (build 2550/release)
Библиотека кодирования : VirtualDubMod build 2550/release

Видео
Идентификатор : 0
Формат : MPEG-4 Visual
Профиль формата : Advanced Simple@L5
Параметр BVOP формата : 2
Параметр QPel формата : Нет
Параметр GMC формата : Без точки перехода
Параметр матрицы формата : Default (MPEG)
Идентификатор кодека : DX50
Идентификатор кодека/Подсказка : DivX 5
Продолжительность : 1 ч. 28 м.
Битрейт : 2100 Кбит/сек
Ширина : 720 пикселей
Высота : 480 пикселей
Соотношение сторон : 3:2
Частота кадров : 23,976 кадра/сек
Стандарт вещания : NTSC
Цветовое пространство : YUV
Субдискретизация насыщенности : 4:2:0
Битовая глубина : 8 бит
Тип развёртки : Прогрессивная
Метод сжатия : С потерями
Бит/(Пиксели*Кадры) : 0.253
Размер потока : 1,29 Гбайт (91%)
Библиотека кодирования : XviD 73

Аудио
Идентификатор : 1
Формат : AC-3
Формат/Информация : Audio Coding 3
Расширение режима : CM (complete main)
Параметр Endianness формата : Big
Идентификатор кодека : 2000
Продолжительность : 1 ч. 28 м.
Вид битрейта : Постоянный
Битрейт : 192 Кбит/сек
Каналы : 2 канала
Расположение каналов : Front: L R
Частота : 48,0 КГц
Битовая глубина : 16 бит
Метод сжатия : С потерями
Размер потока : 121 Мбайт (8%)
Выравнивание : Разделение по промежуткам
Продолжительность промежутка : 42 мс. (1,00 видеокадр)
Время предзагрузки промежутка : 500 мс.




kyo
№2 Отправлено: 14.04.2018 - 14:50


Живёт здесь

Группа: Потребители
Регистрация: 21.07.2007
Сообщений: 1989
Обитает:
Последний раз был:
вчера в 19:52




Архивы в порядке, спасибо !
Top
1 человек просматривает эту тему (1 гость)
« Предыдущая тема | Зарубежные фильмы | Следующая тема »


 



[Script Execution time: 0,0563]   [23 queries used]   [GZIP enabled]