Заходят многие - остаются лучшие!
Здравствуйте Гость ( Вход | Регистрация ) Выслать повторно письмо для активации
Вход
Ваше имя Пароль Забыли пароль?
Запомнить Вас?
Войти скрытым?



 Правила раздела Новые сообщения раздела  


 

 Плоть / Flesh (1932), В гл.роли Уоллес Бири
surzhoks
  №1 Отправлено: 31.12.2018 - 13:07


Живёт здесь

Группа: Аксакалы
Регистрация: 17.03.2008
Сообщений: 1138
Обитает:
Последний раз был:
18.05.2019 - 13:43




Плоть / Flesh


Страна: США
Студия: Metro-Goldwyn-Mayer (MGM)
Жанр: драма, мелодрама
Год выпуска: 1932
Продолжительность: 01:36:05
Режиссер: Джон Форд / John Ford
Композитор: Альфред Ньюман / Alfred Newman

В ролях:
Уоллес Бири / Wallace Beery ... Polakai
Рикардо Кортес / Ricardo Cortez ... Nicky
Карен Морли / Karen Morley ... Laura
Джин Хершолт / Jean Hersholt ... Mr Herman
Джон Мильян / John Miljan ... Willard
Херман Бинг / Herman Bing ... Pepi (headwaiter)
Винс Барнетт / Vince Barnett ... Karl (waiter)
Грета Мейер / Greta Meyer ... Mrs. Herman
Эдвард Брофи / Edward Brophy ... Dolan (referee)

Описание: Американка Лора выходит из немецкой тюрьмы. В тюрьме остаётся её возлюбленный Ники, но у Лоры нет денег, чтобы помочь ему освободиться. Сообщник, у которого остались их с Ники деньги, не приходит на встречу, оставляя Лору без средств к существованию. На помощь ей приходит талантливый борец Полакай и окружает заботой. Вскоре Полакай влюбляется в девушку и делает ей предложение. Лора тронута его добротой, но, несмотря на привязанность к Полакаю, всё ещё тоскует по Ники...

Доп. информация:
Огромное спасибо всем причастным к релизу:
рип - Магда,
перевод и озвучивание фильма- Алексей Багичев,
работа со звуком и реавторинг DVD- AlekceyR76,
финансовая поддержка перевода и озвучивания фильма:
Магда, Lafajet, jasenka, yanaelisa, voostorg, exact, елена 22, Mc-Nabbs, bvedargh, sindzi, killer snowman, surzhoks, борюська, HippopotamusIV, cementit

Архивы созданы RAR-архиватором с добавлением 3% на восстановление и снабжены sfv-проверочником.
Просьба к первому скачавшему отписаться о сохранности архивов на источнике раздачи.

Раздача рассчитана на 2 месяца. На просмотр линка и скачивание 5 дней!
В случае если вы встали в очередь, а затем отказываетесь от скачивания без объяснения причин, возможен отказ в последующих моих раздачах.



Полное имя :Flesh.1932.DVDRip.RusVO.Bagichev.Eng.avi
Формат : AVI
Формат/Информация : Audio Video Interleave
Размер файла : 1,59 Гбайт
Продолжительность : 1 ч. 36 м.
Общий поток : 2365 Кбит/сек
Программа кодирования : VirtualDubMod 1.5.4.1 (build 2178/release)
Библиотека кодирования : VirtualDubMod build 2178/release

Видео
Идентификатор : 0
Формат : MPEG-4 Visual
Профиль формата : Advanced Simple@L5
Параметр BVOP формата : 2
Параметр QPel формата : Нет
Параметр GMC формата : Без точки перехода
Параметр матрицы формата : Default (H.263)
Идентификатор кодека : DX50
Идентификатор кодека/Подсказка : DivX 5
Продолжительность : 1 ч. 36 м.
Битрейт : 1967 Кбит/сек
Ширина : 640 пикселей
Высота : 480 пикселей
Соотношение сторон : 4:3
Частота кадров : 23,976 кадра/сек
Цветовое пространство : YUV
Субдискретизация насыщенности : 4:2:0
Битовая глубина : 8 бит
Тип развёртки : Прогрессивная
Метод сжатия : С потерями
Бит/(Пиксели*Кадры) : 0.267
Размер потока : 1,32 Гбайт (83%)
Библиотека кодирования : XviD 73

Аудио #1
Идентификатор : 1
Формат : AC-3
Формат/Информация : Audio Coding 3
Расширение режима : CM (complete main)
Параметр Endianness формата : Big
Идентификатор кодека : 2000
Продолжительность : 1 ч. 36 м.
Вид битрейта : Постоянный
Битрейт : 192 Кбит/сек
Каналы : 2 канала
Расположение каналов : Front: L R
Частота : 48,0 КГц
Битовая глубина : 16 бит
Метод сжатия : С потерями
Размер потока : 132 Мбайт (8%)
Выравнивание : Разделение по промежуткам
Продолжительность промежутка : 42 мс. (1,00 видеокадр)
Время предзагрузки промежутка : 500 мс.

Аудио #2
Идентификатор : 2
Формат : AC-3
Формат/Информация : Audio Coding 3
Расширение режима : CM (complete main)
Параметр Endianness формата : Big
Идентификатор кодека : 2000
Продолжительность : 1 ч. 36 м.
Вид битрейта : Постоянный
Битрейт : 192 Кбит/сек
Каналы : 2 канала
Расположение каналов : Front: L R
Частота : 48,0 КГц
Битовая глубина : 16 бит
Метод сжатия : С потерями
Размер потока : 132 Мбайт (8%)
Выравнивание : Разделение по промежуткам
Продолжительность промежутка : 42 мс. (1,00 видеокадр)
Время предзагрузки промежутка : 500 мс.




vjub58
№2 Отправлено: 31.12.2018 - 16:19


Практикующий эсквайр

Группа: Аксакалы
Регистрация: 6.12.2005
Сообщений: 5066
Обитает:
Последний раз был:
вчера в 22:53




Спасибо, все ОК. pozdrav_buket.gif
Top
Huan
№3 Отправлено: 3.01.2019 - 09:48


Посетитель

Группа: Форумчане
Регистрация: 4.04.2016
Сообщений: 109
Обитает:
Последний раз был:
cегодня в 12:37




Похоже на "Великан" Эрики Санто.
Top
1 человек просматривает эту тему (1 гость)
« Предыдущая тема | Зарубежные фильмы | Следующая тема »


 



[Script Execution time: 0,1186]   [22 queries used]   [GZIP enabled]