Заходят многие - остаются лучшие!
Здравствуйте Гость ( Вход | Регистрация ) Выслать повторно письмо для активации
Вход
Ваше имя Пароль Забыли пароль?
Запомнить Вас?
Войти скрытым?



 Правила раздела Новые сообщения раздела  


 

 Дамы в уединении / Ladies in Retirement (1941), Ида Лупино, Луис Хейуорд, Эвелин Кейс / драма, нуар
surzhoks
  №1 Отправлено: 27.02.2018 - 07:01


Живёт здесь

Группа: Аксакалы
Регистрация: 17.03.2008
Сообщений: 1065
Обитает:
Последний раз был:
вчера в 20:26




Дамы в уединении / Ladies in Retirement


Страна: США
Студия: Columbia Pictures Corporation
Жанр: драма, фильм-нуар
Год выпуска: 1941
Продолжительность: 01:32:15
Режиссер: Чарльз Видор / Charles Vidor
Композитор: Эрнст Тох / Ernst Toch

В ролях:
Ида Лупино / Ida Lupino ... Ellen Creed
Луис Хейуорд / Louis Hayward ... Albert Feather
Эвелин Кейс / Evelyn Keyes ... Lucy
Эльза Ланчестер / Elsa Lanchester ... Emily Creed
Эдит Баррет / Edith Barrett ... Louisa Creed
Изобел Элсом / Isobel Elsom ... Leonora Fiske
Эмма Данн / Emma Dunn ... Sister Theresa
Куини Леонард / Queenie Leonard ... Sister Agatha
Клайд Кук / Clyde Cook ... Bates

Описание: Англия, конец XIX века. Эллен Крид работает компаньонкой у мисс Леоноры Фиск - бывшей актрисы, которая живет в уединенном особняке в деревне, и всё еще сохраняет свои театральные манеры. Эллен получает уведомление о том, что хозяйка двух ее сестер Эмили и Луизы Крид, которые в настоящее время живут в Лондоне, угрожает вызвать полицию, чтобы поместить их в лечебницу из-за их психически ненормального поведения. Эллен не может допустить, чтобы её сестры были изолированы, и убеждает мисс Фиск, чтобы та приютила их на пару дней. Мисс Фиск соглашается, не подозревая кого впускает в свой дом...
- Изначально на роль Эллен Крид была утверждена Розалинд Расселл.

Оскар, 1942 год
Номинации (2):
- Лучшая работа художника (ч/б фильмы)
- Лучший саундтрек к драматическому фильму


Раздача посвящена 100 - летию со дня рождения Иды Лупино ((4 февраля 1918 – 3 августа 1995)
Доп. информация:
Огромное спасибо всем причастным к релизу:
рип - Магда,
перевод и озвучивание фильма- Алексей Яковлев,
работа со звуком и реавторинг DVD- AlekceyR76,
финансовая поддержка перевода и озвучивания фильма:
Lafajet, Магда, jasenka, yanaelisa, STICK24, Ugo927, елена 22, voostorg, surzhoks, борюська, HippopotamusIV, Patsy+, Лямдазонд, mangust1, mumzik69, spartakeynoir

Архивы созданы RAR-архиватором с добавлением 3% на восстановление и снабжены sfv-проверочником.
Просьба к первому скачавшему отписаться о сохранности архивов на источнике раздачи.

Раздача рассчитана на 2 месяца. На просмотр линка и скачивание 5 дней!
В случае если вы встали в очередь, а затем отказываетесь от скачивания без объяснения причин, возможен отказ в последующих моих раздачах.



Полное имя :Ladies In Retirement.1941.avi
Формат : AVI
Формат/Информация : Audio Video Interleave
Размер файла : 1,58 Гбайт
Продолжительность : 1 ч. 32 м.
Общий поток : 2455 Кбит/сек
Программа кодирования : VirtualDubMod 1.5.4.1 (build 2178/release)
Библиотека кодирования : VirtualDubMod build 2178/release

Видео
Идентификатор : 0
Формат : MPEG-4 Visual
Профиль формата : Advanced Simple@L5
Параметр BVOP формата : 2
Параметр QPel формата : Нет
Параметр GMC формата : Без точки перехода
Параметр матрицы формата : Default (H.263)
Идентификатор кодека : DX50
Идентификатор кодека/Подсказка : DivX 5
Продолжительность : 1 ч. 32 м.
Битрейт : 2057 Кбит/сек
Ширина : 640 пикселей
Высота : 480 пикселей
Соотношение сторон : 4:3
Частота кадров : 23,976 кадра/сек
Цветовое пространство : YUV
Субдискретизация насыщенности : 4:2:0
Битовая глубина : 8 бит
Тип развёртки : Прогрессивная
Метод сжатия : С потерями
Бит/(Пиксели*Кадры) : 0.279
Размер потока : 1,33 Гбайт (84%)
Библиотека кодирования : XviD 73

Аудио #1
Идентификатор : 1
Формат : AC-3
Формат/Информация : Audio Coding 3
Расширение режима : CM (complete main)
Параметр Endianness формата : Big
Идентификатор кодека : 2000
Продолжительность : 1 ч. 32 м.
Вид битрейта : Постоянный
Битрейт : 192 Кбит/сек
Каналы : 2 канала
Расположение каналов : Front: L R
Частота : 48,0 КГц
Битовая глубина : 16 бит
Метод сжатия : С потерями
Размер потока : 127 Мбайт (8%)
Выравнивание : Разделение по промежуткам
Продолжительность промежутка : 42 мс. (1,00 видеокадр)
Время предзагрузки промежутка : 500 мс.

Аудио #2
Идентификатор : 2
Формат : AC-3
Формат/Информация : Audio Coding 3
Расширение режима : CM (complete main)
Параметр Endianness формата : Big
Идентификатор кодека : 2000
Продолжительность : 1 ч. 32 м.
Вид битрейта : Постоянный
Битрейт : 192 Кбит/сек
Каналы : 2 канала
Расположение каналов : Front: L R
Частота : 48,0 КГц
Битовая глубина : 16 бит
Метод сжатия : С потерями
Размер потока : 127 Мбайт (8%)
Выравнивание : Разделение по промежуткам
Продолжительность промежутка : 42 мс. (1,00 видеокадр)
Время предзагрузки промежутка : 500 мс.




OldLady
№2 Отправлено: 27.02.2018 - 13:33


секрет

Группа: Аксакалы
Регистрация: 26.03.2006
Сообщений: 3236
Последний раз был:
cегодня в 14:22




Все в порядке, спасибо!
Top
1 человек просматривает эту тему (1 гость)
« Предыдущая тема | Зарубежные фильмы | Следующая тема »


 



[Script Execution time: 0,0449]   [22 queries used]   [GZIP enabled]