Заходят многие - остаются лучшие!
Здравствуйте Гость ( Вход | Регистрация ) Выслать повторно письмо для активации
Вход
Ваше имя Пароль Забыли пароль?
Запомнить Вас?
Войти скрытым?



 Правила раздела Новые сообщения раздела  


 

 Гастон / Gastone (1960), Трагикомедия;Реж.-М.Боннар;Роли-А.Сорди,В. Де Сика,А.-М.Ферреро
SanSan48
  №1 Отправлено: 10.10.2016 - 16:54


"Спартак" - ЧЕМПИОН!!!

Группа: Пользователи
Регистрация: 28.12.2009
Сообщений: 1820
Обитает:
Последний раз был:
вчера в 17:41




Гастон / Gastone (1960)



Жанр: Трагикомедия
Выпущено: Италия, Maxima Film Compagnia Cinematografica, Sviluppo Pellicole e Stampa (SPES), Variety Film Production
Год выпуска: 1960
Сценаристы: Марио Боннар / Mario Bonnard, Оресте Бьянколи / Oreste Biancoli, Родольфо Сонего / Rodolfo Sonego, Лучана Корда / Luciana Corda, Этторе Мария Маргадонна / Ettore Maria Margadonna, Этторе Петролини / Ettore Petrolini
Оператор: Альдо Тонти / Aldo Tonti
Композиторы: Горни Крамер / Gorni Kramer, Анджело Франческо Лаваньино / Angelo Francesco Lavagnino, Хосе Падилья / José Padilla
Художники: Марио Кьяри / Mario Chiari, Винченцо Дель Прато / Vincenzo Del Prato, Мария Де Маттеи / Maria De Matteis
Монтажёр: Эральдо Да Рома / Eraldo Da Roma

Режиссер: Марио Боннар / Mario Bonnard

В ролях:
Альберто Сорди / Alberto Sordi ... Гастон Ле Бо / Gastone "Le Beau"
Витторио Де Сика / Vittorio De Sica ... Принц / The prince
Анна-Мария Ферреро / Anna-Maria Ferrero ... Наннина Барбети / Nannina Barbeti
Франка Марци / Franca Marzi ... Роза / Rosa
Линда Сини / Linda Sini ... Люси / Lucy
Чело Алонсо / Chelo Alonso ... Карменсита "Сахар" / Carmensita
Магали Ноэль / Magali Noël ... Соня / Sonia
Паоло Стоппа / Paolo Stoppa ... Акилле / Achille
Тино Скотти / Tino Scotti ... иллюзионист-заклинатель / The conjurer
Нанда Примавера / Nanda Primavera ... Флора / Flora
Лола Браччини / Lola Braccini ... "Леди" / La "signora"
Миммо Пальмара / Mimmo Palmara ... Управляющий / Manager
Нандо Бруно / Nando Bruno ... Микеле / Michele
Анна Кампори / Anna Campori ...
Анджела Луче / Angela Luce … Ивон / Ivonne

Описание: Фильм создан по одноимённому спектаклю Этторе Петролини (Этторе Petrolini), который был большим другом режиссёра Марио Боннара.
Италия, двадцатые годы прошлого века, послевоенное время. Гастон (Альберто Сорди), известный как Гастон Ле Бо, выступающий в местном кабаре, в образе прекрасного Адониса - элегантный бабник, развлекающий обеспеченных дам, ищущих волнительные приключения. В окружении красивых женщин и подозрительных «аристократов», мошенников и прожигателей жизни, персонажей столь же бессмысленных и нечестных, торгующих принципами и распродающих всё и вся, он испытывает успех модного танцора, денди и фата.
Но наступает время, когда Гастон, познавший Величие и Славу, упускает выпавший ему шанс, и, понимая, что общественные вкусы изменились, и что его глянцевый мир на исходе, оказывается неспособным вырваться из этого круга - упадок и одиночество окружают его, символическую фигуру "Прекрасной эпохи", ушедшей навсегда…

Дополнительная информация: Релиз:

Автор рипа: pmv

Исходник найден в сети.

Большое Спасибо за:
- перевод на русский язык и озвучку - Urasik
- русские субтитры - Urasik

IMDb = 6,2/10 (65) - http://www.imdb.com/title/tt0129950
Кинопоиск = - (4) - http://www.kinopoisk.ru/film/166310/

Параметры файла:
Название файла: Gastone (1960, rus_VO+ita).avi
Качество видео: DVDRip
Формат видео: AVI
Размер: 1388.79 Mb ( 1 456 257 024 bytes )
Продолжительность: 01:38:57.520 (148438 frames)
Перевод: Одноголосый закадровый - Urasik
Cубтитры: русские + итальянские
Оригинальная аудиодорожка: итальянский
Видео: 656x368 (1.78:1), 25 fps, XviD build 46 ~1498 kbps avg, 0.25 bit/pixel
Аудио #1: 48 kHz, AC3 Dolby Digital, 2/0 (L,R) ch, ~224.00 kbps avg – русский
Аудио #2: 48 kHz, AC3 Dolby Digital, 2/0 (L,R) ch, ~224.00 kbps avg – итальянский



General
Complete name : D:\torrents\Gastone (1960, rus_VO+ita).avi
Format : AVI
Format/Info : Audio Video Interleave
File size : 1.36 GiB
Duration : 1h 38mn
Overall bit rate : 1 962 Kbps
Writing application : VirtualDubMod 1.5.10.3 | www.virtualdub-fr.org || (build 2550/release)
Writing library : VirtualDubMod build 2550/release

Video
ID : 0
Format : MPEG-4 Visual
Format profile : Simple@L3
Format settings, BVOP : No
Format settings, QPel : No
Format settings, GMC : No warppoints
Format settings, Matrix : Default (H.263)
Codec ID : XVID
Codec ID/Hint : XviD
Duration : 1h 38mn
Bit rate : 1 500 Kbps
Width : 656 pixels
Height : 368 pixels
Display aspect ratio : 16:9
Frame rate : 25.000 fps
Color space : YUV
Chroma subsampling : 4:2:0
Bit depth : 8 bits
Scan type : Progressive
Compression mode : Lossy
Bits/(Pixel*Frame) : 0.248
Stream size : 1.04 GiB (76%)
Writing library : XviD 1.1.2 (UTC 2006-11-01)

Audio #1
ID : 1
Format : AC-3
Format/Info : Audio Coding 3
Mode extension : CM (complete main)
Format settings, Endianness : Big
Codec ID : 2000
Duration : 1h 38mn
Bit rate mode : Constant
Bit rate : 224 Kbps
Channel(s) : 2 channels
Channel positions : Front: L R
Sampling rate : 48.0 KHz
Bit depth : 16 bits
Compression mode : Lossy
Stream size : 159 MiB (11%)
Alignment : Split accross interleaves
Interleave, duration : 40 ms (1.00 video frame)
Interleave, preload duration : 500 ms

Audio #2
ID : 2
Format : AC-3
Format/Info : Audio Coding 3
Mode extension : CM (complete main)
Format settings, Endianness : Big
Codec ID : 2000
Duration : 1h 38mn
Bit rate mode : Constant
Bit rate : 224 Kbps
Channel(s) : 2 channels
Channel positions : Front: L R
Sampling rate : 48.0 KHz
Bit depth : 16 bits
Compression mode : Lossy
Stream size : 159 MiB (11%)
Alignment : Split accross interleaves
Interleave, duration : 40 ms (1.00 video frame)
Interleave, preload duration : 500 ms








МОИ РАЗДАЧИ НА ФЕНИКСе: ЗДЕСЬ




Это сообщение отредактировал SanSan48 - 11.10.2016 - 10:35


--------------------
"Спартак" - ЧЕМПИОН!!!

Скрыть подпись


kyo
№2 Отправлено: 10.10.2016 - 17:56


Живёт здесь

Группа: Потребители
Регистрация: 21.07.2007
Сообщений: 1775
Обитает:
Последний раз был:
вчера в 19:29




Архивы в порядке, спасибо !
Top
SanSan48
№3 Отправлено: 10.10.2016 - 18:28


"Спартак" - ЧЕМПИОН!!!

Группа: Пользователи
Регистрация: 28.12.2009
Сообщений: 1820
Обитает:
Последний раз был:
вчера в 17:41




Цитата
( kyo @ 10.10.2016 - 17:56)
Архивы в порядке, спасибо !

kyo, Благодарю за сообщение!

Приятного всем просмотра!


--------------------
"Спартак" - ЧЕМПИОН!!!

Скрыть подпись
Top
Oll
№4 Отправлено: 11.10.2016 - 05:22


Завсегдатай

Группа: Пользователи
Регистрация: 11.03.2009
Сообщений: 331
Обитает:
Последний раз был:
22.07.2017 - 17:36




СПАСИБО !
Top
1 человек просматривает эту тему (1 гость)
« Предыдущая тема | Зарубежные фильмы | Следующая тема »


 



[Script Execution time: 0,0427]   [23 queries used]   [GZIP enabled]