Заходят многие - остаются лучшие!
Здравствуйте Гость ( Вход | Регистрация ) Выслать повторно письмо для активации
Вход
Ваше имя Пароль Забыли пароль?
Запомнить Вас?
Войти скрытым?



Новые сообщения раздела  

 

 Джек Фрост / Jack Frost (1979), Мультипликационный фильм в HD качестве
SanSan48
  №1 Отправлено: 14.07.2018 - 10:46


"Спартак" - ЧЕМПИОН!!!

Группа: Пользователи
Регистрация: 28.12.2009
Сообщений: 1964
Обитает:
Последний раз был:
вчера в 19:36




Джек Фрост / Jack Frost (1979)



Жанр: Мультипликационный (кукольный), мюзикл, фэнтези, семейный
Выпущено: США, Rankin/Bass Productions
Год выпуска: 1979
Премьера (мир): 13 декабря 1979 (США, ТВ)
Сценарист: Ромео Мюллер / Romeo Muller
Композитор: Мори Лоус / Maury Laws
Художник: Пол Кокер мл. / Paul Coker Jr.

Режиссёры: Джулз Басс / Jules Bass, Артур Ранкин мл. / Arthur Rankin Jr.

Роли озвучивали:
Бадди Хэкетт / Buddy Hackett ... Pardon-Me-Pete (Groundhog)
Роберт Морс / Robert Morse ... Jack Frost
Пол Фрис / Paul Frees ... Kubla Kraus / Father Winter
Ларри Сторч / Larry Storch ... Papa
Дэйв Гарровэй / Dave Garroway ... Groundhog Day Television Reporter
Дебра Клинджер / Debra Clinger ... Elisa
Дон Мессик / Don Messick ... Snip
Ди Стрэттон / Dee Stratton ... Mama
Сонни Мелендрес / Sonny Melendrez ... Sir Ravenal Rightfellow
Дина Линн / Dina Lynn ... Holly

Описание: Сурок рассказывает историю о том, как однажды Джек Фрост становится человеком и помогает рыцарю завоевать даму сердца...

Дополнительная информация: Релиз:

Исходник найден в сети.

Автор рипа: pmv

Большое спасибо за:
- аудиодорожки с русской озвучкой с раздачи – Джунипер
- синхронизацию звука - pmv

* Профессиональная двухгоголосая закадровая озвучка выполнена фирмой «Позитив» по заказу Интернет-кинотеатра Иви.ру

ВНИМАНИЕ!!! МОЖНО СКАЧАТЬ ТАКЖЕ РИП mkv (кодек H.264) РАЗМЕРОМ 2,15 Гб (ссылки приложены в ПМ)

IMDb = 7,2/10 (2 319) - https://www.imdb.com/title/tt0079357/
Кинопоиск = - (16) - https://www.kinopoisk.ru/film/dzhek-frost-1979-329728/

ВНИМАНИЕ!!! РИП ФОРМАТА mkv (кодек H.264) ВОСПРОИЗВОДИТСЯ НЕ НА ВСЕХ БЫТОВЫХ ВИДЕОПЛЕЕРАХ!!!

Параметры файла:
Название: Jack Frost (1979, HD-rip, rus_MVO+eng+eng_sub).mkv
Качество видео: HDRip-AVC
Формат видео: MKV
Размер: 1,08 ГБ (1 170 494 928 байт)
Продолжительность: 00:48:21
Перевод: Профессиональный (двухголосый закадровый) – фирма "Позитив"
Субтитры: английские
Оригинальная аудиодорожка: английский
Видео: AVC (H264), 864x648 (4:3), 23.976 fps, 2840 kbps, 0.212 Bits/Pixel
Аудио #1: AC3, 48 kHz, stereo (2 ch), 192 kbps – русский
Аудио #2: AC3, 48 kHz, stereo (2 ch), 192 kbps – английский



General
Unique ID : 27928241970151466046169183648861986867 (0x1502C8A3DE6F10EE56D0C18076712033)
Complete name : D:\torrents\Jack Frost (1979, HD-rip, rus_MVO+eng+eng_sub).mkv
Format : Matroska
Format version : Version 4 / Version 2
File size : 1.09 GiB
Duration : 48 min 20 s
Overall bit rate : 3 228 kb/s
Encoded date : UTC 2018-07-07 13:18:40
Writing application : mkvmerge v24.0.0 ('Beyond The Pale') 64-bit
Writing library : libebml v1.3.6 + libmatroska v1.4.9

Video
ID : 1
Format : AVC
Format/Info : Advanced Video Codec
Format profile : High@L4.1
Format settings, CABAC : Yes
Format settings, RefFrames : 14 frames
Codec ID : V_MPEG4/ISO/AVC
Duration : 48 min 20 s
Bit rate : 2 840 kb/s
Width : 864 pixels
Height : 648 pixels
Display aspect ratio : 4:3
Frame rate mode : Constant
Frame rate : 23.976 (23976/1000) FPS
Original frame rate : 23.976 (24000/1001) FPS
Color space : YUV
Chroma subsampling : 4:2:0
Bit depth : 8 bits
Scan type : Progressive
Bits/(Pixel*Frame) : 0.212
Stream size : 983 MiB (88%)
Writing library : x264 core 146 r2538 121396c
Encoding settings : cabac=1 / ref=14 / deblock=1:0:0 / analyse=0x3:0x133 / me=umh / subme=10 / psy=1 / psy_rd=1.00:0.00 / mixed_ref=1 / me_range=24 / chroma_me=1 / trellis=2 / 8x8dct=1 / cqm=0 / deadzone=21,11 / fast_pskip=1 / chroma_qp_offset=-2 / threads=48 / lookahead_threads=5 / sliced_threads=0 / nr=0 / decimate=1 / interlaced=0 / bluray_compat=0 / constrained_intra=0 / bframes=8 / b_pyramid=2 / b_adapt=2 / b_bias=0 / direct=3 / weightb=1 / open_gop=0 / weightp=2 / keyint=250 / keyint_min=23 / scenecut=40 / intra_refresh=0 / rc_lookahead=60 / rc=2pass / mbtree=1 / bitrate=2840 / ratetol=1.0 / qcomp=0.60 / qpmin=0 / qpmax=69 / qpstep=4 / cplxblur=20.0 / qblur=0.5 / ip_ratio=1.40 / aq=1:1.00
Language : English
Default : Yes
Forced : No

Audio #1
ID : 2
Format : AC-3
Format/Info : Audio Coding 3
Format settings, Endianness : Big
Codec ID : A_AC3
Duration : 48 min 14 s
Bit rate mode : Constant
Bit rate : 192 kb/s
Channel(s) : 2 channels
Channel positions : Front: L R
Sampling rate : 48.0 kHz
Frame rate : 31.250 FPS (1536 SPF)
Bit depth : 16 bits
Compression mode : Lossy
Delay relative to video : 12 ms
Stream size : 66.2 MiB (6%)
Language : Russian
Service kind : Complete Main
Default : Yes
Forced : No

Audio #2
ID : 3
Format : AC-3
Format/Info : Audio Coding 3
Format settings, Endianness : Big
Codec ID : A_AC3
Duration : 48 min 20 s
Bit rate mode : Constant
Bit rate : 192 kb/s
Channel(s) : 2 channels
Channel positions : Front: L R
Sampling rate : 48.0 kHz
Frame rate : 31.250 FPS (1536 SPF)
Bit depth : 16 bits
Compression mode : Lossy
Stream size : 66.4 MiB (6%)
Language : English
Service kind : Complete Main
Default : No
Forced : No

Text
ID : 4
Format : UTF-8
Codec ID : S_TEXT/UTF8
Codec ID/Info : UTF-8 Plain Text
Duration : 47 min 18 s
Bit rate : 70 b/s
Count of elements : 906
Stream size : 24.3 KiB (0%)
Language : English
Default : No
Forced : No








МОИ РАЗДАЧИ НА ФЕНИКСе: ЗДЕСЬ




Это сообщение отредактировал SanSan48 - 14.07.2018 - 14:02


--------------------
"Спартак" - ЧЕМПИОН!!!

Скрыть подпись


kyo
№2 Отправлено: 14.07.2018 - 14:38


Живёт здесь

Группа: Потребители
Регистрация: 21.07.2007
Сообщений: 2041
Обитает:
Последний раз был:
вчера в 18:55




Архивы в порядке, спасибо !
Top
SanSan48
№3 Отправлено: 14.07.2018 - 14:46


"Спартак" - ЧЕМПИОН!!!

Группа: Пользователи
Регистрация: 28.12.2009
Сообщений: 1964
Обитает:
Последний раз был:
вчера в 19:36




Цитата
( kyo @ 14.07.2018 - 14:38)
Архивы в порядке, спасибо !

kyo, Благодарю за сообщение!


--------------------
"Спартак" - ЧЕМПИОН!!!

Скрыть подпись
Top
1 человек просматривает эту тему (1 гость)
« Предыдущая тема | Мир анимации | Следующая тема »


 



[Script Execution time: 0,0315]   [23 queries used]   [GZIP enabled]