Заходят многие - остаются лучшие!
Здравствуйте Гость ( Вход | Регистрация ) Выслать повторно письмо для активации
Вход
Ваше имя Пароль Забыли пароль?
Запомнить Вас?
Войти скрытым?



 Правила раздела Новые сообщения раздела  


 

 Принцесса Канзас-Сити / Kansas City Princess (1934), Джоан Блонделл, Гленда Фаррелл / комедия
surzhoks
  №1 Отправлено: 3.05.2019 - 20:35


Живёт здесь

Группа: Аксакалы
Регистрация: 17.03.2008
Сообщений: 1175
Обитает:
Последний раз был:
9.11.2019 - 12:21




Принцесса Канзас-Сити / Kansas City Princess


Страна: США
Студия: Warner Bros. Pictures
Жанр: комедия
Год выпуска: 1934
Продолжительность: 01:03:45
Режиссер: Уильям Кили / William Keighley

В ролях:
Джоан Блонделл / Joan Blondell ... Rosie Sturges
Гленда Фаррелл / Glenda Farrell ... Marie Callahan
Роберт Армстронг / Robert Armstrong ... Dynamite «Dynie» Carson
Хью Херберт / Hugh Herbert ... Junior Ashcraft
Осгуд Перкинс / Osgood Perkins ... Marcel Duryea - French Private Eye
Т. Рой Барнс / T. Roy Barnes ... Alderman James «Jim» Cameron
Хобарт Кавано / Hobart Cavanaugh ... Alderman Sam Warren
Гордон Весткотт / Gordon Westcott ... Jimmy the Dude aka Frankie Smith
Винс Барнетт / Vince Barnett ... Quincy - Dynamite's Henchman
Иван Лебедефф / Ivan Lebedeff ... Dr. Sascha Pilnakoff
Рени Уитни / Renee Whitney ... Mrs. «Lovums» Ashcraft
Артур Хойт / Arthur Hoyt ... Mr. Greenway

Описание: Подруги Рози и Мэри работают маникюршами в Канзас-Сити. Когда у Рози пропадает дорогое кольцо, которое подарил ей ее парень – гангстер Динамит Карсон, обе подруги вынуждены бежать от гнева Динамита. Рози и Мари отправляются в Нью-Йорк. Быстро заведя знакомство с двумя бизнесменами, девушки с удовольствием вместе с новыми ухажерами отправляются в морское путешествие в Париж...
- Это второй из пяти фильмов, объединивших Джоан Блонделл и Гленду Фаррелл в качестве комедийного дуэта, выпущенных кинокомпанией Warner Bros. с 1933 по 1935 год.

Доп. информация:
Огромное спасибо всем причастным к релизу:
рип - Магда,
перевод фильма- karlivanovich,
озвучивание фильма (по русским субтитрам)- Матвей Кенс,
работа со звуком и реавторинг DVD- AlekceyR76,
финансовая поддержка перевода и озвучивания фильма:
Магда, Lafajet, jasenka, yanaelisa, voostorg, елена 22, cementit, sindzi, spartakeynoir, Ugo927, leoder, HippopotamusIV, борюська, Mc-Nabbs

Архивы созданы RAR-архиватором с добавлением 3% на восстановление и снабжены sfv-проверочником.
Просьба к первому скачавшему отписаться о сохранности архивов на источнике раздачи.

Раздача рассчитана на 2 месяца. На просмотр линка и скачивание 5 дней!
В случае если вы встали в очередь, а затем отказываетесь от скачивания без объяснения причин, возможен отказ в последующих моих раздачах.



Полное имя :Kansas City Princess.avi
Формат : AVI
Формат/Информация : Audio Video Interleave
Размер файла : 1,10 Гбайт
Продолжительность : 1 ч. 3 м.
Общий поток : 2462 Кбит/сек
Программа кодирования : VirtualDubMod 1.5.10.3 | www.virtualdub-fr.org || (build 2550/release)
Библиотека кодирования : VirtualDubMod build 2550/release

Видео
Идентификатор : 0
Формат : MPEG-4 Visual
Профиль формата : Advanced Simple@L5
Параметр BVOP формата : 2
Параметр QPel формата : Нет
Параметр GMC формата : Без точки перехода
Параметр матрицы формата : Default (H.263)
Идентификатор кодека : DX50
Идентификатор кодека/Подсказка : DivX 5
Продолжительность : 1 ч. 3 м.
Битрейт : 2063 Кбит/сек
Ширина : 608 пикселей
Высота : 464 пикселя
Соотношение сторон : 4:3
Частота кадров : 23,976 кадра/сек
Цветовое пространство : YUV
Субдискретизация насыщенности : 4:2:0
Битовая глубина : 8 бит
Тип развёртки : Прогрессивная
Метод сжатия : С потерями
Бит/(Пиксели*Кадры) : 0.305
Размер потока : 941 Мбайт (84%)
Библиотека кодирования : XviD 73

Аудио #1
Идентификатор : 1
Формат : AC-3
Формат/Информация : Audio Coding 3
Расширение режима : CM (complete main)
Параметр Endianness формата : Big
Идентификатор кодека : 2000
Продолжительность : 1 ч. 3 м.
Вид битрейта : Постоянный
Битрейт : 192 Кбит/сек
Каналы : 2 канала
Расположение каналов : Front: L R
Частота : 48,0 КГц
Битовая глубина : 16 бит
Метод сжатия : С потерями
Размер потока : 87,6 Мбайт (8%)
Выравнивание : Разделение по промежуткам
Продолжительность промежутка : 42 мс. (1,00 видеокадр)
Время предзагрузки промежутка : 500 мс.

Аудио #2
Идентификатор : 2
Формат : AC-3
Формат/Информация : Audio Coding 3
Расширение режима : CM (complete main)
Параметр Endianness формата : Big
Идентификатор кодека : 2000
Продолжительность : 1 ч. 3 м.
Вид битрейта : Постоянный
Битрейт : 192 Кбит/сек
Каналы : 2 канала
Расположение каналов : Front: L R
Частота : 48,0 КГц
Битовая глубина : 16 бит
Метод сжатия : С потерями
Размер потока : 87,6 Мбайт (8%)
Выравнивание : Разделение по промежуткам
Продолжительность промежутка : 42 мс. (1,00 видеокадр)
Время предзагрузки промежутка : 500 мс.




vjub58
№2 Отправлено: 3.05.2019 - 21:13


Практикующий эсквайр

Группа: Аксакалы
Регистрация: 6.12.2005
Сообщений: 5251
Обитает:
Последний раз был:
cегодня в 19:32




Спасибо, все ОК. pozdrav_buket.gif
Top
1 человек просматривает эту тему (1 гость)
« Предыдущая тема | Зарубежные фильмы | Следующая тема »


 



[Script Execution time: 0,2980]   [23 queries used]   [GZIP enabled]