Заходят многие - остаются лучшие!
Здравствуйте Гость ( Вход | Регистрация ) Выслать повторно письмо для активации
Вход
Ваше имя Пароль Забыли пароль?
Запомнить Вас?
Войти скрытым?



Новые сообщения раздела  

 

 Приключения Буратино (1975), сказка для всех возрастов
apb1
  №1 Отправлено: 3.05.2015 - 16:48


наша синема

Группа: Аксакалы
Регистрация: 6.03.2008
Сообщений: 2787
Обитает:
На форуме с:
cегодня в 18:36




Приключения Буратино


СССР, Беларусьфильм, творческое объединение "Телефильм", 1975, сказка

Режиссёр: Леонид Нечаев
Сценарий: Инна Веткина
Оператор: Юрий Елхов
Композитор: Алексей Рыбников
Художник: Леонид Ершов
  • Музыка Алексея Рыбникова
  • Стихи Булата Окуджавы, Юрия Энтина
  • Государственный симфонический оркестр кинематографии СССР под управлением Георгия Гараняна
В ролях: Дмитрий Иосифов, Татьяна Проценко, Рома Столкарц, Томас Аугустинас, Григорий Светлорусов, Николай Гринько, Владимир Этуш, Владимир Басов, Елена Санаева, Ролан Быков, Рина Зелёная, Юрий Катин-Ярцев, Баадур Цуладзе

Культовый советский двухсерийный фильм по мотивам сказки А. Н. Толстого «Золотой ключик, или Приключения Буратино». До 1986 года сказка издавалась в СССР 182 раза, общий тираж превысил 14,5 миллионов экземпляров, была переведена на 47 языков.

На дурака не нужен нож: ему немного подпоешь - и делай с ним, что хошь! Деревянный человечек, которого Папа Карло выстругал из полена, получился веселым, дерзким, шумным и доверчивым. Лиса Алиса и Кот Базилио завели его в Страну дураков, но мудрая Черепаха Тортилла помогла Буратино найти Золотой Ключик, потому что он был ужасно обаятельным.

В СССР песни из этого фильма выпускались на пластинках фирмой «Мелодия». Музыкальные композиции (танцы Буратино с куклами в театрах, мелодия «Какое небо голубое») использовались в начальном мультипликационном прологе фильма «100 грамм для храбрости». Позже некоторые музыкальные композиции из этого фильма иногда использовались в начальных мультипликационных заставках и темах выпусков журнала «Ералаш» (например — «Кто там?», «Опасная работа» и др.).

Сравнение (последняя раздача от 10.01.2010 / текущая):




несколько кадров:













General
Unique ID : 234418694185189123795359951741320151559 (0xB05B65F4BB019B2C8AE9A79F6D17C207)
Complete name : Приключения Буратино (2 серии) 1975 APB-MPG\Priklucheniya.Buratino.1.1975.mkv
Format : Matroska
Format version : Version 4 / Version 2
File size : 1.15 GiB
Duration : 1h 5mn
Overall bit rate : 2 530 Kbps
Encoded date : UTC 2015-05-03 15:58:50
Writing application : mkvmerge v7.8.0 ('River Man') 64bit built on Mar 27 2015 16:31:37
Writing library : libebml v1.3.1 + libmatroska v1.4.2
DURATION : 01:05:01.488000000
NUMBER_OF_FRAMES : 162562
NUMBER_OF_BYTES : 62423808
_STATISTICS_WRITING_APP : mkvmerge v7.8.0 ('River Man') 64bit built on Mar 27 2015 16:31:37
_STATISTICS_WRITING_DATE_UTC : 2015-05-03 15:58:50
_STATISTICS_TAGS : BPS DURATION NUMBER_OF_FRAMES NUMBER_OF_BYTES

Video
ID : 1
Format : AVC
Format/Info : Advanced Video Codec
Format profile : High@L4.1
Format settings, CABAC : Yes
Format settings, ReFrames : 4 frames
Codec ID : V_MPEG4/ISO/AVC
Duration : 1h 5mn
Bit rate : 2 400 Kbps
Width : 712 pixels
Height : 572 pixels
Display aspect ratio : 4:3
Frame rate mode : Constant
Frame rate : 25.000 fps
Color space : YUV
Chroma subsampling : 4:2:0
Bit depth : 8 bits
Scan type : Progressive
Bits/(Pixel*Frame) : 0.236
Stream size : 1.07 GiB (93%)
Writing library : x264 core 146 r2538 121396c
Encoding settings : cabac=1 / ref=3 / deblock=1:-1:-1 / analyse=0x3:0x113 / me=hex / subme=7 / psy=1 / psy_rd=1.00:0.15 / mixed_ref=1 / me_range=16 / chroma_me=1 / trellis=1 / 8x8dct=1 / cqm=0 / deadzone=21,11 / fast_pskip=1 / chroma_qp_offset=-3 / threads=6 / lookahead_threads=1 / sliced_threads=0 / nr=0 / decimate=1 / interlaced=0 / bluray_compat=0 / constrained_intra=0 / bframes=3 / b_pyramid=2 / b_adapt=2 / b_bias=0 / direct=1 / weightb=1 / open_gop=0 / weightp=2 / keyint=250 / keyint_min=25 / scenecut=40 / intra_refresh=0 / rc_lookahead=40 / rc=2pass / mbtree=1 / bitrate=2400 / ratetol=1.0 / qcomp=0.60 / qpmin=0 / qpmax=41 / qpstep=4 / cplxblur=20.0 / qblur=0.5 / vbv_maxrate=62500 / vbv_bufsize=78125 / nal_hrd=none / filler=0 / ip_ratio=1.40 / aq=1:1.00
Default : Yes
Forced : No

Audio
ID : 2
Format : MPEG Audio
Format version : Version 1
Format profile : Layer 3
Codec ID : A_MPEG/L3
Codec ID/Hint : MP3
Duration : 1h 5mn
Bit rate mode : Constant
Bit rate : 128 Kbps
Channel(s) : 1 channel
Sampling rate : 48.0 KHz
Compression mode : Lossy
Stream size : 59.5 MiB (5%)
Default : Yes
Forced : No


Продолжительность: 01:05:01.488 + 01:07:55.800
Фильм залит в архив.




Это сообщение отредактировал медикус - 21.06.2015 - 10:36


Rosenкранц
№2 Отправлено: 3.05.2015 - 18:44


любящий сердцем

Группа: Форумчане
Регистрация: 12.03.2014
Сообщений: 7565
Обитает:
Последний раз был:
cегодня в 16:15




Долгое время не знал , что Буратино озвучивала Татьяна Канаева.


Присоединённое изображение
Присоединённое изображение


--------------------
Темной ночью и чуть свет ЛЮДИ явятся на СВЕТ

Скрыть подпись
Top
Rosenкранц
№3 Отправлено: 3.05.2015 - 20:30


любящий сердцем

Группа: Форумчане
Регистрация: 12.03.2014
Сообщений: 7565
Обитает:
Последний раз был:
cегодня в 16:15




А песню Пьеро исполняла Ирина Понаровская


Присоединённое изображение
Присоединённое изображение


--------------------
Темной ночью и чуть свет ЛЮДИ явятся на СВЕТ

Скрыть подпись
Top
cjnpiir
№4 Отправлено: 4.05.2015 - 09:02


Живёт здесь

Группа: Потребители
Регистрация: 21.01.2012
Сообщений: 1084
Обитает:
Последний раз был:
19.11.2017 - 05:45




Архивы в порядке.
СПАСИБО !!! 8aff71ec6fd33c786daf52c3b978e922.gif
Top
apb1
№5 Отправлено: 5.05.2015 - 16:47


наша синема

Группа: Аксакалы
Регистрация: 6.03.2008
Сообщений: 2787
Обитает:
На форуме с:
cегодня в 18:36




cjnpiir, спасибо за информацию!
Top
1 человек просматривает эту тему (1 гость)
« Предыдущая тема | Детский киносеанс | Следующая тема »


 



[Script Execution time: 0,0388]   [24 queries used]   [GZIP enabled]