Заходят многие - остаются лучшие!
Здравствуйте Гость ( Вход | Регистрация ) Выслать повторно письмо для активации
Вход
Ваше имя Пароль Забыли пароль?
Запомнить Вас?
Войти скрытым?



Новые сообщения раздела  

 

 Библейский сюжет. Ингрид Бергман, Роберто Росселлини Стромболи, земля Божья (2017), Авторская программа Дмитрия Менделеева
Alevtina
  №1 Отправлено: 8.12.2017 - 16:07


Время камни собирать...

Группа: Аксакалы
Регистрация: 12.02.2009
Сообщений: 5736
Обитает:
Последний раз был:
вчера в 21:07




Библейский сюжет. Ингрид Бергман, Роберто Росселлини "Стромболи, земля Божья"



В рамках проекта -

Год выпуска: 2017

Страна: Россия

Режиссер: Ольга Жукова

Студия: ООО Студия "Неофит"

Автор и ведущий: Дмитрий Менделеев


Обращение великих художников к Библии никогда не заканчивалось только иллюстрацией того или иного сюжета Вечной Книги. Оно всегда предполагало личное осмысление. Художник выбирал библейскую историю, чтобы рассказать о себе, о своем времени, чтобы глубже постичь смысл происходящего.
Язык образов Святого Писания был универсален и понятен для всех. Но теперь для нас этот язык наполовину забыт. Мы уже не можем так ясно, с листа, читать всё, что говорили в своих произведениях художники, поэты, композиторы и писатели прошлого. Мы более опираемся на чувственное восприятие, которое все же является только частью замысла, его внешней стороной. В программе "Библейский сюжет" делается попытка соединить "прекрасного разрозненные части", по-другому взглянуть на всемирно известные произведения искусства, рассказать о судьбе их создателей.


Описание:
Посмотрев в кино "Рим - открытый город" и пережив потрясение, Ингрид Бергман решила написать письмо его создателю. "Дорогой мистер Росселлини! Если вам понадобится шведская актриса, хорошо говорящая по-английски, не забывшая свой немецкий, кое-что понимающая по-французски, а по-итальянски знающая только "Ti amo" (Я люблю тебя), я готова приехать и работать вместе с Вами".
Роберто не знал, кто такая Ингрид Бергман и поначалу решил, что это розыгрыш. Но когда, наконец, всё выяснилось, он принял её письмо просто как дар свыше. Эпиграфом к их первой совместной картине стали слова пророка Исаии: "Я открылся не вопрошавшим обо Мне; Меня нашли не искавшие Меня".


За постер спасибо bornik!


Media-info:


Format : AVI
Format/Info : Audio Video Interleave
File size : 397 MiB
Duration : 25mn 58s
Overall bit rate : 2 134 Kbps
Writing application : VirtualDubMod 1.5.10.2 (build 2540/release)
Writing library : VirtualDubMod build 2540/release

Video
ID : 0
Format : MPEG-4 Visual
Format profile : Advanced Simple@L5
Format settings, BVOP : 2
Format settings, QPel : No
Format settings, GMC : No warppoints
Format settings, Matrix : Default (H.263)
Muxing mode : Packed bitstream
Codec ID : XVID
Codec ID/Hint : XviD
Duration : 25mn 58s
Bit rate : 1 997 Kbps
Width : 720 pixels
Height : 400 pixels
Display aspect ratio : 16:9
Frame rate : 25.000 fps
Color space : YUV
Chroma subsampling : 4:2:0
Bit depth : 8 bits
Scan type : Progressive
Compression mode : Lossy
Bits/(Pixel*Frame) : 0.277
Stream size : 371 MiB (94%)
Writing library : XviD 65

Audio
ID : 1
Format : MPEG Audio
Format version : Version 1
Format profile : Layer 3
Codec ID : 55
Codec ID/Hint : MP3
Duration : 25mn 58s
Bit rate mode : Constant
Bit rate : 128 Kbps
Channel(s) : 2 channels
Sampling rate : 48.0 KHz
Compression mode : Lossy
Stream size : 23.8 MiB (6%)
Alignment : Aligned on interleaves
Interleave, duration : 40 ms (1.00 video frame)
Interleave, preload duration : 504 ms
Writing library : LAME3.98r
Encoding settings : -m s -V 4 -q 3 -lowpass 17 -b 128



Скриншоты:






Записались на автоматическое включение в очередь:
baziss, Snara, valbar, vyur, RussianGuy, Marrina, медикус, mosk7, Nadejdaenergia, ILIA, Masjanja, ajlinn, oldfanat, bondsun, mikhailk, medandrey, oster47, Tanjusha, andrusenko, rittaa, medush, rucula

Если вы хотите, чтобы вас автоматически ставили в очередь на следующие выпуски данного цикла, - сообщите об этом в теме последней раздачи.




Это сообщение отредактировал Alevtina - 8.12.2017 - 16:38


--------------------

Прохожие, купите Доброту!
Лишь за улыбку! Разве ж это много!
Исполните заветную мечту…
И хоть одну из Заповедей Бога!
Снимите маски «гордых» и «крутых»
Купите, хоть немножечко, Терпенья.
И ощутите сердцем, хоть на миг,
Всю прелесть и восторг благодаренья!
Сегодня, АКЦИЯ на Совесть и Любовь!
Притормозите «хаммер» свой, иль «буммер»!
Купите! И волнуйте свою кровь!
От этого ещё никто не умер!


Скрыть подпись


RussianGuy
№2 Отправлено: 8.12.2017 - 20:25


Живёт здесь

Группа: Потребители
Регистрация: 12.02.2007
Сообщений: 1396
Обитает:
На форуме с:
cегодня в 05:42




Архивы в порядке. Спасибо
Top
Alevtina
№3 Отправлено: 8.12.2017 - 20:50


Время камни собирать...

Группа: Аксакалы
Регистрация: 12.02.2009
Сообщений: 5736
Обитает:
Последний раз был:
вчера в 21:07




RussianGuy, благодарю за весть!


--------------------

Прохожие, купите Доброту!
Лишь за улыбку! Разве ж это много!
Исполните заветную мечту…
И хоть одну из Заповедей Бога!
Снимите маски «гордых» и «крутых»
Купите, хоть немножечко, Терпенья.
И ощутите сердцем, хоть на миг,
Всю прелесть и восторг благодаренья!
Сегодня, АКЦИЯ на Совесть и Любовь!
Притормозите «хаммер» свой, иль «буммер»!
Купите! И волнуйте свою кровь!
От этого ещё никто не умер!


Скрыть подпись
Top
1 человек просматривает эту тему (1 гость)
« Предыдущая тема | Мир и люди искусства | Следующая тема »


 



[Script Execution time: 0,0591]   [23 queries used]   [GZIP enabled]