Заходят многие - остаются лучшие!
Здравствуйте Гость ( Вход | Регистрация ) Выслать повторно письмо для активации
Вход
Ваше имя Пароль Забыли пароль?
Запомнить Вас?
Войти скрытым?



Новые сообщения раздела  

 

 Библейский сюжет. Юз Алешковский. Перстень в футляре (2018), Авторская программа Дмитрия Менделеева
Alevtina
  №1 Отправлено: 19.02.2018 - 19:51


Время камни собирать...

Группа: Аксакалы
Регистрация: 12.02.2009
Сообщений: 5693
Обитает:
Последний раз был:
вчера в 22:00




Библейский сюжет. Юз Алешковский. "Перстень в футляре"



В рамках проекта -

Год выпуска: 2018

Страна: Россия

Режиссер: Ольга Жукова

Студия: ООО Студия "Неофит"

Автор и ведущий: Дмитрий Менделеев


Обращение великих художников к Библии никогда не заканчивалось только иллюстрацией того или иного сюжета Вечной Книги. Оно всегда предполагало личное осмысление. Художник выбирал библейскую историю, чтобы рассказать о себе, о своем времени, чтобы глубже постичь смысл происходящего.
Язык образов Святого Писания был универсален и понятен для всех. Но теперь для нас этот язык наполовину забыт. Мы уже не можем так ясно, с листа, читать всё, что говорили в своих произведениях художники, поэты, композиторы и писатели прошлого. Мы более опираемся на чувственное восприятие, которое все же является только частью замысла, его внешней стороной. В программе "Библейский сюжет" делается попытка соединить "прекрасного разрозненные части", по-другому взглянуть на всемирно известные произведения искусства, рассказать о судьбе их создателей.


Описание:

"Перстень в футляре. Рождественский роман". Эта книга Юза Алешковского - классическая рождественская история. Советский атеист, можно даже сказать, апостол "научного" атеизма, замерзая в сочельник в московском сугробе, вспоминал свою жизнь и все перипетии, которые привели его в столь плачевное состояние, и в результате - встретил и полюбил Бога.

Название - из обращенного к Богу стихотворения Бориса Пастернака "В больнице":

Мне сладко при свете неярком,
Чуть падающем на кровать,
Себя и свой жребий подарком
Бесценным Твоим сознавать.
Кончаясь в больничной постели,
Я чувствую рук Твоих жар.
Ты держишь меня, как изделие,
И прячешь, как перстень, в футляр.


За постер спасибо bornik!


Media-info:


Format : AVI
Format/Info : Audio Video Interleave
File size : 398 MiB
Duration : 26mn 3s
Overall bit rate : 2 135 Kbps
Writing application : VirtualDubMod 1.5.10.2 (build 2540/release)
Writing library : VirtualDubMod build 2540/release

Video
ID : 0
Format : MPEG-4 Visual
Format profile : Advanced Simple@L5
Format settings, BVOP : 2
Format settings, QPel : No
Format settings, GMC : No warppoints
Format settings, Matrix : Default (H.263)
Muxing mode : Packed bitstream
Codec ID : XVID
Codec ID/Hint : XviD
Duration : 26mn 3s
Bit rate : 1 998 Kbps
Width : 720 pixels
Height : 400 pixels
Display aspect ratio : 16:9
Frame rate : 25.000 fps
Color space : YUV
Chroma subsampling : 4:2:0
Bit depth : 8 bits
Scan type : Progressive
Compression mode : Lossy
Bits/(Pixel*Frame) : 0.277
Stream size : 372 MiB (94%)
Writing library : XviD 65

Audio
ID : 1
Format : MPEG Audio
Format version : Version 1
Format profile : Layer 3
Codec ID : 55
Codec ID/Hint : MP3
Duration : 26mn 3s
Bit rate mode : Constant
Bit rate : 128 Kbps
Channel(s) : 2 channels
Sampling rate : 48.0 KHz
Compression mode : Lossy
Stream size : 23.8 MiB (6%)
Alignment : Aligned on interleaves
Interleave, duration : 40 ms (1.00 video frame)
Interleave, preload duration : 504 ms
Writing library : LAME3.98r
Encoding settings : -m s -V 4 -q 3 -lowpass 17 -b 128


Скриншоты:







Записались на автоматическое включение в очередь:
baziss, Snara, valbar, vyur, RussianGuy, Marrina, медикус, mosk7, Nadejdaenergia, ILIA, Masjanja, ajlinn, oldfanat, bondsun, mikhailk, medandrey, oster47, Tanjusha, andrusenko, rittaa, medush, rucula

Если вы хотите, чтобы вас автоматически ставили в очередь на следующие выпуски данного цикла, - сообщите об этом в теме последней раздачи.




Это сообщение отредактировал Alevtina - 21.02.2018 - 18:41


--------------------

Прохожие, купите Доброту!
Лишь за улыбку! Разве ж это много!
Исполните заветную мечту…
И хоть одну из Заповедей Бога!
Снимите маски «гордых» и «крутых»
Купите, хоть немножечко, Терпенья.
И ощутите сердцем, хоть на миг,
Всю прелесть и восторг благодаренья!
Сегодня, АКЦИЯ на Совесть и Любовь!
Притормозите «хаммер» свой, иль «буммер»!
Купите! И волнуйте свою кровь!
От этого ещё никто не умер!


Скрыть подпись


ajlinn
№2 Отправлено: 19.02.2018 - 23:31


аксакал

Группа: Потребители
Регистрация: 16.05.2012
Сообщений: 618
Обитает:
Последний раз был:
вчера в 23:40





ОГРОМНОЕ СПАСИБО!!!

Всё скачалось прекрасно!
Top
Alevtina
№3 Отправлено: 20.02.2018 - 10:04


Время камни собирать...

Группа: Аксакалы
Регистрация: 12.02.2009
Сообщений: 5693
Обитает:
Последний раз был:
вчера в 22:00




ajlinn, благодарю за весть!


--------------------

Прохожие, купите Доброту!
Лишь за улыбку! Разве ж это много!
Исполните заветную мечту…
И хоть одну из Заповедей Бога!
Снимите маски «гордых» и «крутых»
Купите, хоть немножечко, Терпенья.
И ощутите сердцем, хоть на миг,
Всю прелесть и восторг благодаренья!
Сегодня, АКЦИЯ на Совесть и Любовь!
Притормозите «хаммер» свой, иль «буммер»!
Купите! И волнуйте свою кровь!
От этого ещё никто не умер!


Скрыть подпись
Top
1 человек просматривает эту тему (1 гость)
« Предыдущая тема | Мир и люди искусства | Следующая тема »


 



[Script Execution time: 0,0243]   [23 queries used]   [GZIP enabled]