Заходят многие - остаются лучшие!
Здравствуйте Гость ( Вход | Регистрация ) Выслать повторно письмо для активации
Вход
Ваше имя Пароль Забыли пароль?
Запомнить Вас?
Войти скрытым?



Новые сообщения раздела  

 

 Библейский сюжет. Александр Башлачёв Время колокольчиков (2018), Авторская программа Дмитрия Менделеева
Alevtina
  №1 Отправлено: 4.04.2018 - 09:29


Время камни собирать...

Группа: Аксакалы
Регистрация: 12.02.2009
Сообщений: 5686
Обитает:
Последний раз был:
cегодня в 16:32




Библейский сюжет. Александр Башлачёв "Время колокольчиков"



В рамках проекта -

Год выпуска: 2018

Страна: Россия

Режиссер: Ольга Жукова

Студия: ООО Студия "Неофит"

Автор и ведущий: Дмитрий Менделеев


Обращение великих художников к Библии никогда не заканчивалось только иллюстрацией того или иного сюжета Вечной Книги. Оно всегда предполагало личное осмысление. Художник выбирал библейскую историю, чтобы рассказать о себе, о своем времени, чтобы глубже постичь смысл происходящего.
Язык образов Святого Писания был универсален и понятен для всех. Но теперь для нас этот язык наполовину забыт. Мы уже не можем так ясно, с листа, читать всё, что говорили в своих произведениях художники, поэты, композиторы и писатели прошлого. Мы более опираемся на чувственное восприятие, которое все же является только частью замысла, его внешней стороной. В программе "Библейский сюжет" делается попытка соединить "прекрасного разрозненные части", по-другому взглянуть на всемирно известные произведения искусства, рассказать о судьбе их создателей.


Описание:

Конец лета – начало осени 1984 года. Война в Афганистане. Журналист Леонид Парфенов пригласил в свой родной Череповец рок-критика Артемия Троицкого. Познакомиться с ним пришел друг Парфенова Саша Башлачев. "Извинился, что плохо играет, – вспоминает Троицкий. – Мне не показалось, что он очень стеснялся, самоуверенным тоже не был. Вообще пел очень естественно, иногда только со спокойным любопытством поглядывал на нас. В этот вечер он впервые "на людях" спел "Время колокольчиков" – песню, ставшую потом символом русского рока".

В этой песне предчувствие духовного пробуждения народа, истосковавшегося по вере, и призыв к нему:

С каждым днем времена меняются.
Купола растеряли золото.
Звонари по миру слоняются.
Колокола сбиты и расколоты.
Что ж теперь ходим круг да около
На своем поле, как подпольщики?
Если нам не отлили колокол,
Значит, здесь время колокольчиков.



Media-info:


Format : AVI
Format/Info : Audio Video Interleave
File size : 361 MiB
Duration : 26mn 10s
Overall bit rate : 1 931 Kbps

Video
ID : 0
Format : MPEG-4 Visual
Format profile : Advanced Simple@L5
Format settings, BVOP : 2
Format settings, QPel : No
Format settings, GMC : No warppoints
Format settings, Matrix : Default (H.263)
Codec ID : XVID
Codec ID/Hint : XviD
Duration : 26mn 10s
Bit rate : 1 790 Kbps
Width : 720 pixels
Height : 400 pixels
Display aspect ratio : 16:9
Frame rate : 25.000 fps
Color space : YUV
Chroma subsampling : 4:2:0
Bit depth : 8 bits
Scan type : Progressive
Compression mode : Lossy
Bits/(Pixel*Frame) : 0.249
Stream size : 335 MiB (93%)
Writing library : XviD 64

Audio
ID : 1
Format : MPEG Audio
Format version : Version 1
Format profile : Layer 3
Codec ID : 55
Codec ID/Hint : MP3
Duration : 26mn 10s
Source duration : 26mn 10s
Bit rate mode : Constant
Bit rate : 128 Kbps
Channel(s) : 2 channels
Sampling rate : 44.1 KHz
Compression mode : Lossy
Stream size : 24.0 MiB (7%)
Alignment : Split accross interleaves
Interleave, duration : 26 ms (0.65 video frame)


Cкриншоты:






Записались на автоматическое включение в очередь:
baziss, Snara, valbar, vyur, RussianGuy, Marrina, медикус, mosk7, Nadejdaenergia, ILIA, Masjanja, ajlinn, oldfanat, bondsun, mikhailk, medandrey, oster47, Tanjusha, andrusenko, rittaa, medush, rucula

Если вы хотите, чтобы вас автоматически ставили в очередь на следующие выпуски данного цикла, - сообщите об этом в теме последней раздачи.




Это сообщение отредактировал Alevtina - 8.04.2018 - 19:44


--------------------

Прохожие, купите Доброту!
Лишь за улыбку! Разве ж это много!
Исполните заветную мечту…
И хоть одну из Заповедей Бога!
Снимите маски «гордых» и «крутых»
Купите, хоть немножечко, Терпенья.
И ощутите сердцем, хоть на миг,
Всю прелесть и восторг благодаренья!
Сегодня, АКЦИЯ на Совесть и Любовь!
Притормозите «хаммер» свой, иль «буммер»!
Купите! И волнуйте свою кровь!
От этого ещё никто не умер!


Скрыть подпись


baziss
№2 Отправлено: 4.04.2018 - 12:43


Аксакал обыкновенный

Группа: Аксакалы
Регистрация: 4.12.2005
Сообщений: 2541
Обитает:
Последний раз был:
cегодня в 11:39




Архив в порядке. Спасибо большое! chveti.gif


--------------------

Скрыть подпись
Top
Alevtina
№3 Отправлено: 4.04.2018 - 12:47


Время камни собирать...

Группа: Аксакалы
Регистрация: 12.02.2009
Сообщений: 5686
Обитает:
Последний раз был:
cегодня в 16:32




baziss, и я благодарю Вас за информацию!


--------------------

Прохожие, купите Доброту!
Лишь за улыбку! Разве ж это много!
Исполните заветную мечту…
И хоть одну из Заповедей Бога!
Снимите маски «гордых» и «крутых»
Купите, хоть немножечко, Терпенья.
И ощутите сердцем, хоть на миг,
Всю прелесть и восторг благодаренья!
Сегодня, АКЦИЯ на Совесть и Любовь!
Притормозите «хаммер» свой, иль «буммер»!
Купите! И волнуйте свою кровь!
От этого ещё никто не умер!


Скрыть подпись
Top
1 человек просматривает эту тему (1 гость)
« Предыдущая тема | Мир и люди искусства | Следующая тема »


 



[Script Execution time: 0,0309]   [23 queries used]   [GZIP enabled]