Заходят многие - остаются лучшие!
Здравствуйте Гость ( Вход | Регистрация ) Выслать повторно письмо для активации
Вход
Ваше имя Пароль Забыли пароль?
Запомнить Вас?
Войти скрытым?



 Правила раздела Новые сообщения раздела  


 

 Русская игра (2007), Российское кино
bornik
  №1 Отправлено: 1.01.2018 - 08:16


Воспоминания - это богатства старости.

Группа: Модераторы
Регистрация: 18.08.2008
Сообщений: 1036
Обитает:
Последний раз был:
вчера в 20:38




Русская игра (2007)



«Русская игра» - российский авантюрно-трагикомедийный художественный фильм режиссёра Павла Чухраяа. Сюжет фильма основан на недописанной пьесе Николая Гоголя «Игроки».

Предыдущая раздача 04.11.2007 г. с другими параметрами.

Жанр: Авантюрная трагикомедия, экранизация
Выпущено: Россия, "Корса-фильм", телеканал "Россия"
Год выпуска: 2007
Премьера (СССР): 04 октября 2007 года

Режиссёр: Павел Чухрай

В ролях:
Сергей Гармаш … Степан Иванович Утешительный
Сергей Маковецкий … Аполлон Швохнев
Андрей Мерзликин … Кругель
Джулиано Ди Капуа … Лукино Форца
Дмитрий Высоцкий … Саша Глов
Авангард Леонтьев … Псой Стахич Замухрышкин, подложный чиновник
Владимир Сальников … старший Глов
Михаэль Кинкель … кредитор
Анна Фонхоф … "Графиня"
Игнатий Акрачков … Алексей
Юрий Вьюшин … Гаврюшка
Иван Агапов … человек у церкви
Павел Сборщиков … Аким
Виктория Савва … цыганочка
Иштван Савва … цыганёнок
Евгения Ульянова … нищенка
Михаил Негин … Бородкин
Мария Букнис … Агафья
Анна Жилина … эпизод
Евгений Булдаков … эпизод
Андрей Короткевич … эпизод
Андрей Крылов (II) … эпизод
Юрий Маслак … отставной штабс-капитан
Алексей Кузьмин … эпизод
Игорь Мещерин … офицер

ОЗВУЧИВАНИЕ
Виктор Петров … закадровый текст

Сценаристы: Павел Чухрай
Операторы: Андрей Жегалов, Владимир Климов
Композитор: Юрий Потеенко
Художник: Григорий Широков
Продюсеры: Сергей Шумаков, Ирина Баскакова

Описание: Итальянского карточного шулера высшего пилотажа Лукино Форца нашли его многочисленные кредиторы и заставили подписать закладную на всё, что у него есть. Если до определенного срока он не соберет всю долговую сумму, в Италии его будет ждать тюрьма.
Форца отправляется на родину умершей жены — в Россию, чтобы выиграть там огромные деньги, расплатиться с долгами, тем самым спасти себя и своё имущество. На всё про всё у него неделя. К тому моменту, когда судьба сводит его с компанией развеселых русских шулеров (Швохнев, Кугель и Утешительный), он уже заработал при помощи крапленых карт 80 тысяч. Они признают друг в друге "мастеров своего дела" и поначалу договариваются работать вместе. Швохнев подсовывает Форца некоего помещика Глова, обладающего значительной суммой, которую тот поручает забрать своему сыну Александру. Мошенники обыгрывают молодого человека и получают от него вексель на 200 тысяч. Но деньги должны прийти только через пару дней. Тогда мошенники предлагают Форца остаться и подождать выплаты. Сами же они, прикрываясь якобы поступившей очень выгодной "наводкой" в другом городе, забирают 80 тысяч, собираются уезжать, уверяя встретиться с итальянцем через пару дней. Форца соглашается. Через считанные минуты после обмена он узнает, что никаких 200 тысяч не существует, и весь этот спектакль был разыгран специально для него, дабы заполучить его деньги.


• 2007 — Кинофестиваль «Окно в Европу» (Выборг)
Главный приз «Большая золотая ладья» в конкурсе «Выборгский счёт»
Главный приз «Золотая ладья» в конкурсе игрового кино
Приз имени Станислава и Андрея Ростоцких (Сергей Маковецкий)
• 2007 — Кинофестиваль «Московская премьера»
Приз департамента культуры города Москвы (Павел Чухрай)
• 2008 — Российский кинофестиваль «Литература и кино» (Гатчина)
Приз за лучшую режиссуру (Павел Чухрай)
• 2008 — «Ника»
номинация в категории за лучшую работу художника по костюмам (Дмитрий Андреев)










General
Complete name : C:\Cinema\Русская игра (2007) DVDRip.avi
Format : AVI
Format/Info : Audio Video Interleave
File size : 1.37 GiB
Duration : 1h 35mn
Overall bit rate : 2 052 Kbps
Writing application : VirtualDubMod 1.5.10.2 (build 2540/release)
Writing library : VirtualDubMod build 2540/release

Video
ID : 0
Format : MPEG-4 Visual
Format profile : Advanced Simple@L5
Format settings, BVOP : 2
Format settings, QPel : No
Format settings, GMC : No warppoints
Format settings, Matrix : Default (H.263)
Muxing mode : Packed bitstream
Codec ID : XVID
Codec ID/Hint : XviD
Duration : 1h 35mn
Bit rate : 1 850 Kbps
Width : 720 pixels
Height : 416 pixels
Display aspect ratio : 16:9
Frame rate : 25.000 fps
Color space : YUV
Chroma subsampling : 4:2:0
Bit depth : 8 bits
Scan type : Progressive
Compression mode : Lossy
Bits/(Pixel*Frame) : 0.247
Stream size : 1.23 GiB (90%)
Writing library : XviD 65

Audio
ID : 1
Format : MPEG Audio
Format version : Version 1
Format profile : Layer 3
Mode : Joint stereo
Codec ID : 55
Codec ID/Hint : MP3
Duration : 1h 35mn
Bit rate mode : Constant
Bit rate : 192 Kbps
Channel(s) : 2 channels
Sampling rate : 48.0 KHz
Compression mode : Lossy
Stream size : 131 MiB (9%)
Alignment : Aligned on interleaves
Interleave, duration : 40 ms (1.00 video frame)
Interleave, preload duration : 504 ms
Writing library : LAME3.98r
Encoding settings : -m j -V 4 -q 3 -lowpass 18.6 -b 192

=================================



Архивы созданы RAR-архиватором с добавлением 3% на восстановление и снабжены sfv-проверочником.
Просьба к первому скачавшему отписаться о сохранности архивов на источнике раздачи.


ПРИЯТНОГО ВСЕМ ПРОСМОТРА !!!




--------------------
Безоблачная старость – это миф,
Поскольку наша память – ширь морская,
И к ночи начинается прилив,
Со дна обломки прошлого таская.
Игорь Губерман

Скрыть подпись


bogorod
№2 Отправлено: 1.01.2018 - 09:38


Новичок

Группа: Потребители
Регистрация: 23.11.2006
Сообщений: 87
Обитает:
Последний раз был:
вчера в 05:13




Архивы в порядке. Спасибо!
С Новым годом!
Top
bornik
№3 Отправлено: 1.01.2018 - 12:51


Воспоминания - это богатства старости.

Группа: Модераторы
Регистрация: 18.08.2008
Сообщений: 1036
Обитает:
Последний раз был:
вчера в 20:38




Цитата
bogorod @ 1.01.2018 - 09:38
Архивы в порядке. Спасибо!
С Новым годом!

И Вам, bogorod, спасибо за добрую весть. happy_fly.gif

С Новым Годом!


--------------------
Безоблачная старость – это миф,
Поскольку наша память – ширь морская,
И к ночи начинается прилив,
Со дна обломки прошлого таская.
Игорь Губерман

Скрыть подпись
Top
kwaha
№4 Отправлено: 29.03.2018 - 17:08


Гость

Группа: Новички
Регистрация: 9.08.2017
Сообщений: 1
Обитает:
Последний раз был:
2.04.2018 - 17:44




Архив скачан
Top
1 человек просматривает эту тему (1 гость)
« Предыдущая тема | Отечественное кино | Следующая тема »


 



[Script Execution time: 0,0643]   [23 queries used]   [GZIP enabled]