Заходят многие - остаются лучшие!
Здравствуйте Гость ( Вход | Регистрация ) Выслать повторно письмо для активации
Вход
Ваше имя Пароль Забыли пароль?
Запомнить Вас?
Войти скрытым?



Новые сообщения раздела  

 

 Александр Ведерников. Золотой бас России (2007), документальный, биографический фильм
Nadejdaenergia
  №1 Отправлено: 12.01.2018 - 19:43


Когда всё плохое уходит, остаётся только хорошее.

Группа: Модераторы
Регистрация: 21.03.2012
Сообщений: 6210
Обитает:
Последний раз был:
позавчера в 16:43




Александр Ведерников. Золотой бас России (2007)


Описание
Памяти Александра Филипповича Ведерникова (1927-2018)


Алекса́ндр Фили́ппович Веде́рников (23 декабря 1927, село Мокино, Вятская губерния, РСФСР, СССР — 9 января 2018, Москва, Россия) — советский и российский оперный и камерный певец (бас), педагог. Солист Большого театра СССР в 1958—1990 гг. Исполнял практически все басовые партии в русских операх.

Страница Википедии

Документальный фильм (Россия, 2007).
Производство ООО «Артс Медиацентр» по заказу ООО «Телекомпания «Гамаюн»»
Автор фильма – Юлия Тихонова
Режиссёр – Никита Н. Тихонов
Оператор – Юрий Лабыгин
Звукорежиссёр – Павел Максимов
Музыкальный редактор – Марина Кучевицкая
Директор – Анна Богатько
Продюсер – Никита Тихонов

О фильме : Имя Александра Ведерникова по праву входит в список великих русских басов. Выпускник Московской консерватории, солист Театра оперы и балета им. Кирова (Мариинского театра), победитель Международного конкурса им. Шумана, стажер Ла Скала, солист Большого театра - таковы вехи творческой биографии артиста. Фильм создан на основе интервью с артистом, хроникальных кино-, видео- и фотоматериалов.

В фильме принимают участие:

Александр Ведерников – народный артист СССР, лауреат Государственной премии, лауреат Международного конкурса им. Шумана

Включены фрагменты выступлений артиста:

- Г.Свиридов. Концерт для хора «Пушкинский венок» на слова А.С.Пушкина
- Г.Свиридов. «Подъезжая под Ижоры» из вокального цикла на слова А.С.Пушкина
- Н.Римский-Корсаков. «Снегурочка»
- М.Глинка. «Руслан и Людмила», «Иван Сусанин», «Прощание с Петербургом» из вокального цикла на стихи Н.Кукольника
- Л.Бетховен. «Песня о блохе» на стихи И.Гёте
- Дж.Россини. «Севильский цирюльник»
- М.Мусоргский. «Хованщина», «Борис Годунов»
- С.Прокофьев. «Война и мир».








General
Complete name : Zolotoy.bas.Rossii.Alexsandr.Vedernikov.2007.fenixclub.com.avi
Format : AVI
Format/Info : Audio Video Interleave
File size : 585 MiB
Duration : 38mn 50s
Overall bit rate : 2 106 Kbps
Writing application : VirtualDubMod 1.5.10.3 | www.virtualdub-fr.org || (build 2550/release)
Writing library : VirtualDubMod build 2550/release

Video
ID : 0
Format : MPEG-4 Visual
Format profile : Advanced Simple@L5
Format settings, BVOP : 1
Format settings, QPel : No
Format settings, GMC : No warppoints
Format settings, Matrix : Default (MPEG)
Codec ID : DX50
Codec ID/Hint : DivX 5
Duration : 38mn 50s
Bit rate : 1 904 Kbps
Width : 608 pixels
Height : 352 pixels
Display aspect ratio : 1.727
Frame rate : 25.000 fps
Color space : YUV
Chroma subsampling : 4:2:0
Bit depth : 8 bits
Scan type : Progressive
Compression mode : Lossy
Bits/(Pixel*Frame) : 0.356
Stream size : 529 MiB (90%)
Writing library : XviD 1.2.1 (UTC 2008-12-04)

Audio
ID : 1
Format : MPEG Audio
Format version : Version 1
Format profile : Layer 3
Codec ID : 55
Codec ID/Hint : MP3
Duration : 38mn 50s
Bit rate mode : Constant
Bit rate : 192 Kbps
Channel(s) : 1 channel
Sampling rate : 44.1 KHz
Compression mode : Lossy
Stream size : 53.4 MiB (9%)
Alignment : Split accross interleaves
Interleave, duration : 40 ms (1.00 video frame)
Interleave, preload duration : 500 ms
Writing library : LAME3.99r
Encoding settings : -m m -V 4 -q 0 -lowpass 20.5 -b 192


Исходник найден в Сети. Качество оставляет желать... Но если учитывать, что об этом исполнителе в сети нашлось всего две документальные программы за долгую его жизнь - данный фильм и передача из цикла "Линия жизни", то лучше такое качество, чем ничего.

Многотомный архив создан архиватором RAR и снабжён sfv-проверочником. Раздача рассчитана на месяц.

Просьба первым скачавшим сообщить о состоянии архива.


Земля пухом и светлая память!




--------------------


1. Только надеяться - мало толка.
И все-таки, разумеется,
надо надеяться, но только
НЕ ТОЛЬКО надеяться.

2. Мудрость простейших истин признав,
Повесь на стену себе
Знак сокровенный, таинственный Знак
ВТВ.
И если к вершине долгий путь
Стал непосильным бременем –
Вспомни, прежде чем повернуть:
Всё Требует Времени…


Piet Hein Jr.

Скрыть подпись


Человек1991
№2 Отправлено: 12.01.2018 - 19:48


Посетитель

Группа: Потребители
Регистрация: 1.07.2015
Сообщений: 113
Обитает:
Последний раз был:
6.07.2018 - 13:11




Архивы в норме.
Top
Nadejdaenergia
№3 Отправлено: 13.01.2018 - 09:10


Когда всё плохое уходит, остаётся только хорошее.

Группа: Модераторы
Регистрация: 21.03.2012
Сообщений: 6210
Обитает:
Последний раз был:
позавчера в 16:43




Человек1991, благодарю!


--------------------


1. Только надеяться - мало толка.
И все-таки, разумеется,
надо надеяться, но только
НЕ ТОЛЬКО надеяться.

2. Мудрость простейших истин признав,
Повесь на стену себе
Знак сокровенный, таинственный Знак
ВТВ.
И если к вершине долгий путь
Стал непосильным бременем –
Вспомни, прежде чем повернуть:
Всё Требует Времени…


Piet Hein Jr.

Скрыть подпись
Top
Nadejdaenergia
№4 Отправлено: 12.03.2018 - 11:21


Когда всё плохое уходит, остаётся только хорошее.

Группа: Модераторы
Регистрация: 21.03.2012
Сообщений: 6210
Обитает:
Последний раз был:
позавчера в 16:43




Все заливы на Облако сохраняются. При желании скачать пишите в ПМ.


--------------------


1. Только надеяться - мало толка.
И все-таки, разумеется,
надо надеяться, но только
НЕ ТОЛЬКО надеяться.

2. Мудрость простейших истин признав,
Повесь на стену себе
Знак сокровенный, таинственный Знак
ВТВ.
И если к вершине долгий путь
Стал непосильным бременем –
Вспомни, прежде чем повернуть:
Всё Требует Времени…


Piet Hein Jr.

Скрыть подпись
Top
1 человек просматривает эту тему (1 гость)
« Предыдущая тема | Мир и люди искусства | Следующая тема »


 



[Script Execution time: 0,0530]   [23 queries used]   [GZIP enabled]