Заходят многие - остаются лучшие!
Здравствуйте Гость ( Вход | Регистрация ) Выслать повторно письмо для активации
Вход
Ваше имя Пароль Забыли пароль?
Запомнить Вас?
Войти скрытым?



Новые сообщения раздела  

 

 Библейский сюжет. Борис Савинков. Конь бледный (2017), Авторская программа Дмитрия Менделеева
Alevtina
  №1 Отправлено: 3.12.2017 - 17:28


Время камни собирать...

Группа: Аксакалы
Регистрация: 12.02.2009
Сообщений: 5736
Обитает:
Последний раз был:
cегодня в 14:06




Библейский сюжет. Борис Савинков. "Конь бледный"



В рамках проекта -

Год выпуска: 2017

Страна: Россия

Режиссер: Ольга Жукова

Студия: ООО Студия "Неофит"

Автор и ведущий: Дмитрий Менделеев


Обращение великих художников к Библии никогда не заканчивалось только иллюстрацией того или иного сюжета Вечной Книги. Оно всегда предполагало личное осмысление. Художник выбирал библейскую историю, чтобы рассказать о себе, о своем времени, чтобы глубже постичь смысл происходящего.
Язык образов Святого Писания был универсален и понятен для всех. Но теперь для нас этот язык наполовину забыт. Мы уже не можем так ясно, с листа, читать всё, что говорили в своих произведениях художники, поэты, композиторы и писатели прошлого. Мы более опираемся на чувственное восприятие, которое все же является только частью замысла, его внешней стороной. В программе "Библейский сюжет" делается попытка соединить "прекрасного разрозненные части", по-другому взглянуть на всемирно известные произведения искусства, рассказать о судьбе их создателей.


Описание:

"И вот, конь бледный, и на нем всадник, которому имя "смерть"; и ад следовал за ним…" Апокалипсис.

"Кто ненавидит брата своего, тот находится во тьме и во тьме ходит, и не знает, куда идет, потому что тьма ослепила ему глаза". Иоанн Богослов.
Эти две библейские цитаты вчерашний террорист выбрал эпиграфом для своего романа, обнажающего внутренний крах политического террора. "Если бы спросили меня сейчас в Европе, - пишет в 1909 году Мережковский, - какая книга самая русская и по какой можно судить о будущем России, после великих произведений Толстого и Достоевского, я указал бы на "Коня бледного". Это покажется преувеличенным, но, может быть, не таким чрезмерным, если помнить, что речь идет не столько о книге, сколько о том, что за нею.
"Я сидел в тюрьме и ждал казни. Было какое-то странное равнодушие, не хотелось жить, но и умирать не хотелось... Не тревожил вопрос, как прожита жизнь; не рождалось сомнение, что там за темною гранью; вот помню: меня занимало, режет ли веревка, больно ль задыхаться, и часто вечером после поверки, когда на дворе затихал барабан, я пристально смотрел на желтый огонь лампы, стоявшей на покрытом хлебными крошками тюремном столе, и спрашивал себя: нет ли страха в душе? И отвечал: нет. Потому что мне было все все равно". У кого не было веревки на шее, тот не написал бы так. Может, художественнее, трогательнее, страшнее, - но не так".


За постер спасибо bornik!


Media-info:


Format : AVI
Format/Info : Audio Video Interleave
File size : 396 MiB
Duration : 25mn 54s
Overall bit rate : 2 135 Kbps
Writing application : VirtualDubMod 1.5.10.2 (build 2540/release)
Writing library : VirtualDubMod build 2540/release

Video
ID : 0
Format : MPEG-4 Visual
Format profile : Advanced Simple@L5
Format settings, BVOP : 2
Format settings, QPel : No
Format settings, GMC : No warppoints
Format settings, Matrix : Default (H.263)
Muxing mode : Packed bitstream
Codec ID : XVID
Codec ID/Hint : XviD
Duration : 25mn 54s
Bit rate : 1 997 Kbps
Width : 720 pixels
Height : 400 pixels
Display aspect ratio : 16:9
Frame rate : 25.000 fps
Color space : YUV
Chroma subsampling : 4:2:0
Bit depth : 8 bits
Scan type : Progressive
Compression mode : Lossy
Bits/(Pixel*Frame) : 0.277
Stream size : 370 MiB (94%)
Writing library : XviD 65

Audio
ID : 1
Format : MPEG Audio
Format version : Version 1
Format profile : Layer 3
Codec ID : 55
Codec ID/Hint : MP3
Duration : 25mn 54s
Bit rate mode : Constant
Bit rate : 128 Kbps
Channel(s) : 2 channels
Sampling rate : 48.0 KHz
Compression mode : Lossy
Stream size : 23.7 MiB (6%)
Alignment : Aligned on interleaves
Interleave, duration : 40 ms (1.00 video frame)
Interleave, preload duration : 504 ms
Writing library : LAME3.98r
Encoding settings : -m s -V 4 -q 3 -lowpass 17 -b 128



Скриншоты:





Записались на автоматическое включение в очередь:
baziss, Snara, valbar, vyur, RussianGuy, Marrina, медикус, mosk7, Nadejdaenergia, ILIA, Masjanja, ajlinn, oldfanat, bondsun, mikhailk, medandrey, oster47, Tanjusha, andrusenko, rittaa, medush.

Если вы хотите, чтобы вас автоматически ставили в очередь на следующие выпуски данного цикла, - сообщите об этом в теме последней раздачи.




Это сообщение отредактировал Alevtina - 4.12.2017 - 16:02


--------------------

Прохожие, купите Доброту!
Лишь за улыбку! Разве ж это много!
Исполните заветную мечту…
И хоть одну из Заповедей Бога!
Снимите маски «гордых» и «крутых»
Купите, хоть немножечко, Терпенья.
И ощутите сердцем, хоть на миг,
Всю прелесть и восторг благодаренья!
Сегодня, АКЦИЯ на Совесть и Любовь!
Притормозите «хаммер» свой, иль «буммер»!
Купите! И волнуйте свою кровь!
От этого ещё никто не умер!


Скрыть подпись


baziss
№2 Отправлено: 3.12.2017 - 18:52


Аксакал обыкновенный

Группа: Аксакалы
Регистрация: 4.12.2005
Сообщений: 2612
Обитает:
Последний раз был:
вчера в 07:47




Архив в порядке. Спасибо большое! chveti.gif


--------------------

Скрыть подпись
Top
Alevtina
№3 Отправлено: 3.12.2017 - 19:12


Время камни собирать...

Группа: Аксакалы
Регистрация: 12.02.2009
Сообщений: 5736
Обитает:
Последний раз был:
cегодня в 14:06




baziss, благодарю за весть!


--------------------

Прохожие, купите Доброту!
Лишь за улыбку! Разве ж это много!
Исполните заветную мечту…
И хоть одну из Заповедей Бога!
Снимите маски «гордых» и «крутых»
Купите, хоть немножечко, Терпенья.
И ощутите сердцем, хоть на миг,
Всю прелесть и восторг благодаренья!
Сегодня, АКЦИЯ на Совесть и Любовь!
Притормозите «хаммер» свой, иль «буммер»!
Купите! И волнуйте свою кровь!
От этого ещё никто не умер!


Скрыть подпись
Top
valbar
№4 Отправлено: 3.12.2017 - 22:25


Живёт здесь

Группа: Потребители
Регистрация: 13.01.2010
Сообщений: 1169
Обитает:
Последний раз был:
5.07.2019 - 18:05




Уважаемая Alevtina, я не оказалась автоматически в очереди случайно?


Top
Alevtina
№5 Отправлено: 4.12.2017 - 07:24


Время камни собирать...

Группа: Аксакалы
Регистрация: 12.02.2009
Сообщений: 5736
Обитает:
Последний раз был:
cегодня в 14:06




valbar, совершенно случайно. Прошу прощения, добавляла вроде всех, но как так получилось, ...пенсию зря не дают.... yes.gif DD.gif


--------------------

Прохожие, купите Доброту!
Лишь за улыбку! Разве ж это много!
Исполните заветную мечту…
И хоть одну из Заповедей Бога!
Снимите маски «гордых» и «крутых»
Купите, хоть немножечко, Терпенья.
И ощутите сердцем, хоть на миг,
Всю прелесть и восторг благодаренья!
Сегодня, АКЦИЯ на Совесть и Любовь!
Притормозите «хаммер» свой, иль «буммер»!
Купите! И волнуйте свою кровь!
От этого ещё никто не умер!


Скрыть подпись
Top
valbar
№6 Отправлено: 4.12.2017 - 08:00


Живёт здесь

Группа: Потребители
Регистрация: 13.01.2010
Сообщений: 1169
Обитает:
Последний раз был:
5.07.2019 - 18:05




Alevtina, большое спасибо!
Top
1 человек просматривает эту тему (1 гость)
« Предыдущая тема | Мир и люди искусства | Следующая тема »


 



[Script Execution time: 0,0498]   [23 queries used]   [GZIP enabled]