Заходят многие - остаются лучшие!
Здравствуйте Гость ( Вход | Регистрация ) Выслать повторно письмо для активации
Вход
Ваше имя Пароль Забыли пароль?
Запомнить Вас?
Войти скрытым?



 Правила раздела Новые сообщения раздела  


 

 Человеческая комедия / The Human Comedy (1943), Микки Руни, Донна Рид, Ван Джонсон / драма
surzhoks
  №1 Отправлено: 19.05.2017 - 06:26


Старожил

Группа: Аксакалы
Регистрация: 17.03.2008
Сообщений: 940
Обитает:
Последний раз был:
вчера в 21:58




Человеческая комедия / The Human Comedy


Страна: США
Студия: Metro-Goldwyn-Mayer (MGM)
Жанр: драма
Год выпуска: 1943
Продолжительность: 01:56:37
Режиссер: Кларенс Браун / Clarence Brown
Композитор: Херберт Стотхарт / Herbert Stothart
В ролях:
Микки Руни / Mickey Rooney ... Homer Macauley
Донна Рид / Donna Reed ... Bess Macauley
Ван Джонсон / Van Johnson ... Marcus Macauley
Джеки «Бутч» Дженкинс / Jackie «Butch» Jenkins (в титрах: Jack Jenkins) ... Ulysses Macauley
Фрэнк Морган / Frank Morgan ... Willie Grogan
Джеймс Крэйг / James Craig ... Tom Spangler
Марша Хант / Marsha Hunt ... Diana Steed
Фэй Бейнтер / Fay Bainter ... Mrs. Macauley
Рэй Коллинз / Ray Collins ... Mr. Macauley
Генри О’Нилл / Henry O'Neill ... Charles Steed
Кэтрин Александр / Katharine Alexander ... Mrs. Steed
Джон Крэвен / John Craven ... Tobey George

Описание: Фильм - история семьи подростка Гомера Маколея (Микки Руни), старшеклассника, работающего неполный рабочий день подручным телеграфиста, что бы поддержать семью в вымышленном городе Итака, штат Калифорния, во время Второй мировой войны и его старшего брата, ушедшего на войну...
Фильм снят по частично автобиографической повести «Человеческая комедия» (The Human Comedy, 1942) Уильяма Сарояна, Сароян сначала написал сценарий, не согласился с версией экранизации по его сценарию, был уволен из кинопроекта и затем быстро написал повесть и опубликовал ее непосредственно перед выпуском фильма. С подачи главы студии MGM Луиса Б. Майера сценарий Сарояна был изменен, в том числе почти отсутствует социальная критика.

Оскар, 1944 год
Победитель (1): Лучший сюжет
Номинации (4):
Лучший фильм
Лучшая мужская роль (Микки Руни)
Лучший режиссер (Кларенс Браун)
Лучшая работа оператора (ч/б фильмы)


Доп. информация:
Огромное спасибо всем причастным к релизу:
рип - Магда,
перевод фильма - larisa_k,
озвучивание фильма (по переводу larisa_k)- Nastia,
исходный DVD, работа со звуком и реавторинг исходного DVD- AlekceyR76

Архивы созданы RAR-архиватором с добавлением 3% на восстановление и снабжены sfv-проверочником.
Есть зеркало на mediafire.

Просьба к первому скачавшему отписаться о сохранности архивов на источнике раздачи.

Раздача рассчитана на 2 месяца. На просмотр линка и скачивание 5 дней!
В случае если вы встали в очередь, а затем отказываетесь от скачивания без объяснения причин, возможен отказ в последующих моих раздачах.



Полное имя :.The Human Comedy.DVDRip.avi
Формат : AVI
Формат/Информация : Audio Video Interleave
Размер файла : 1,62 Гбайт
Продолжительность : 1 ч. 56 м.
Общий поток : 1985 Кбит/сек
Программа кодирования : VirtualDubMod 1.5.4.1 (build 2178/release)
Библиотека кодирования : VirtualDubMod build 2178/release

Видео
Идентификатор : 0
Формат : MPEG-4 Visual
Профиль формата : Advanced Simple@L5
Параметр BVOP формата : 2
Параметр QPel формата : Нет
Параметр GMC формата : Без точки перехода
Параметр матрицы формата : Default (H.263)
Идентификатор кодека : DX50
Идентификатор кодека/Подсказка : DivX 5
Продолжительность : 1 ч. 56 м.
Битрейт : 1587 Кбит/сек
Ширина : 640 пикселей
Высота : 480 пикселей
Соотношение сторон : 4:3
Частота кадров : 23,976 кадра/сек
Цветовое пространство : YUV
Субдискретизация насыщенности : 4:2:0
Битовая глубина : 8 бит
Тип развёртки : Прогрессивная
Метод сжатия : С потерями
Бит/(Пиксели*Кадры) : 0.215
Размер потока : 1,29 Гбайт (80%)
Библиотека кодирования : XviD 73
Аудио #1
Идентификатор : 1
Формат : AC-3
Формат/Информация : Audio Coding 3
Расширение режима : CM (complete main)
Параметр Endianness формата : Big
Идентификатор кодека : 2000
Продолжительность : 1 ч. 56 м.
Вид битрейта : Постоянный
Битрейт : 192 Кбит/сек
Каналы : 2 канала
Расположение каналов : Front: L R
Частота : 48,0 КГц
Битовая глубина : 16 бит
Метод сжатия : С потерями
Размер потока : 160 Мбайт (10%)
Выравнивание : Разделение по промежуткам
Продолжительность промежутка : 42 мс. (1,00 видеокадр)
Время предзагрузки промежутка : 500 мс.

Аудио #2
Идентификатор : 2
Формат : AC-3
Формат/Информация : Audio Coding 3
Расширение режима : CM (complete main)
Параметр Endianness формата : Big
Идентификатор кодека : 2000
Продолжительность : 1 ч. 56 м.
Вид битрейта : Постоянный
Битрейт : 192 Кбит/сек
Каналы : 2 канала
Расположение каналов : Front: L R
Частота : 48,0 КГц
Битовая глубина : 16 бит
Метод сжатия : С потерями
Размер потока : 160 Мбайт (10%)
Выравнивание : Разделение по промежуткам
Продолжительность промежутка : 42 мс. (1,00 видеокадр)
Время предзагрузки промежутка : 500 мс.




--------------------
Искусство откладывать деньги сводится к умению сказать “нет” потребительскому обществу.

Скрыть подпись


kyo
№2 Отправлено: 19.05.2017 - 10:08


Живёт здесь

Группа: Потребители
Регистрация: 21.07.2007
Сообщений: 1706
Обитает:
Последний раз был:
25.05.2017 - 04:09




Архивы в порядке, спасибо !
Top
1 человек просматривает эту тему (1 гость)
« Предыдущая тема | Зарубежные фильмы | Следующая тема »


 



[Script Execution time: 0,0286]   [23 queries used]   [GZIP enabled]