Заходят многие - остаются лучшие!
Здравствуйте Гость ( Вход | Регистрация ) Выслать повторно письмо для активации
Вход
Ваше имя Пароль Забыли пароль?
Запомнить Вас?
Войти скрытым?



 Правила раздела Новые сообщения раздела  


 

 Сыграйте свинг, учитель / 'Swing it' magistern (1940)
surzhoks
  №1 Отправлено: 30.09.2018 - 16:51


Живёт здесь

Группа: Аксакалы
Регистрация: 17.03.2008
Сообщений: 1100
Обитает:
Последний раз был:
8.11.2018 - 13:03




Сыграйте свинг, учитель / 'Swing it' magistern


Страна: Швеция
Студия: S. Bauman-Produktion
Жанр: мюзикл, комедия
Год выпуска: 1940
Продолжительность: 01:27:04
Режиссер: Шамиль Бауман / Schamyl Bauman
Сценаристы: Шамиль Бауман / Schamyl Bauman, Хассе Экман / Hasse Ekman

В ролях:
Алиса Бабс / Alice Babs (в титрах: Alice «Babs» Nilson) ... Inga Danell
Адольф Яр / Adolf Jahr ... Musiklärare «Susen» Bergman
Солвейг Хеденгран / Solveig Hedengran ... Fröken Lena Larsson
Карл Хагман / Carl Hagman (в титрах: Quarl Hagman) ... Rektorn William Löfbeck
Вивар Ридквист / Viran Rydkvist (в титрах: Viran Rydqvist) ... Rektorskan Agda Löfbeck
Тор Модиен / Thor Modéen ... Karl-Otto Löfbeck
Джон Ботвид / John Botvid ... Vaktmästare Gustafsson
Георг Фюнквист / Georg Funkquist ... Franskläraren Furubeck
Линнеа Хиллберг / Linnéa Hillberg (в титрах: Linnea Hillberg) ... Fru Danell
Юлия Сесар / Julia Cæsar ... Fröken Jonsson
Аке Йоханссон / Åke Johansson ... Axel «Acke» Danell
Нильс Халльберг / Nils Hallberg (в титрах: Nisse Hallberg) ... Ture Andersson

Описание: В школе учитель музыки проверяет способность учеников петь. 16-летняя Инга Данелл исполняет свою песню настолько зажигательно, что весь класс начинают подпевать ей. Исполнение прерывается появлением директора школы, которая считает, что джаз и свинг - это неприемлемые жанры. Через некоторое время Инга начинает выступать в ночном клубе, где в пианисте узнаёт своего учителя музыки.
Венецианский кинофестиваль, 1941 год
Победитель (1):
Похвальная грамота ( Шамиль Бауман )

Доп. информация:
Огромное спасибо всем причастным к релизу:
рип - Магда,
перевод и озвучивание фильма- Дмитрий Есарев,
работа со звуком и реавторинг DVD- AlekceyR76,
финансовая поддержка перевода и озвучивания фильма:
Магда, Lafajet, jasenka, yanaelisa, keg38, voostorg, елена 22, leoder, борюська, sindzi, Simpun, spartakeynoir, sin58, Nmaska, GalaUkr, HippopotamusIV

Архивы созданы RAR-архиватором с добавлением 3% на восстановление и снабжены sfv-проверочником.
Просьба к первому скачавшему отписаться о сохранности архивов на источнике раздачи.

Раздача рассчитана на 2 месяца. На просмотр линка и скачивание 5 дней!
В случае если вы встали в очередь, а затем отказываетесь от скачивания без объяснения причин, возможен отказ в последующих моих раздачах.



Полное имя :'Swing it' magistern.avi
Формат : AVI
Формат/Информация : Audio Video Interleave
Размер файла : 1,46 Гбайт
Продолжительность : 1 ч. 27 м.
Общий поток : 2399 Кбит/сек
Программа кодирования : VirtualDubMod 1.5.10.3 | www.virtualdub-fr.org || (build 2550/release)
Библиотека кодирования : VirtualDubMod build 2550/release

Видео
Идентификатор : 0
Формат : MPEG-4 Visual
Профиль формата : Advanced Simple@L5
Параметр BVOP формата : 2
Параметр QPel формата : Нет
Параметр GMC формата : Без точки перехода
Параметр матрицы формата : Default (H.263)
Идентификатор кодека : DX50
Идентификатор кодека/Подсказка : DivX 5
Продолжительность : 1 ч. 27 м.
Битрейт : 2001 Кбит/сек
Ширина : 688 пикселей
Высота : 528 пикселей
Соотношение сторон : 4:3
Частота кадров : 25,000 кадров/сек
Цветовое пространство : YUV
Субдискретизация насыщенности : 4:2:0
Битовая глубина : 8 бит
Тип развёртки : Прогрессивная
Метод сжатия : С потерями
Бит/(Пиксели*Кадры) : 0.220
Размер потока : 1,22 Гбайт (83%)
Библиотека кодирования : XviD 73

Аудио #1
Идентификатор : 1
Формат : AC-3
Формат/Информация : Audio Coding 3
Расширение режима : CM (complete main)
Параметр Endianness формата : Big
Идентификатор кодека : 2000
Продолжительность : 1 ч. 27 м.
Вид битрейта : Постоянный
Битрейт : 192 Кбит/сек
Каналы : 1 канал
Расположение каналов : Front: C
Частота : 48,0 КГц
Битовая глубина : 16 бит
Метод сжатия : С потерями
Размер потока : 120 Мбайт (8%)
Выравнивание : Разделение по промежуткам
Продолжительность промежутка : 40 мс. (1,00 видеокадр)
Время предзагрузки промежутка : 500 мс.

Аудио #2
Идентификатор : 2
Формат : AC-3
Формат/Информация : Audio Coding 3
Расширение режима : CM (complete main)
Параметр Endianness формата : Big
Идентификатор кодека : 2000
Продолжительность : 1 ч. 27 м.
Вид битрейта : Постоянный
Битрейт : 192 Кбит/сек
Каналы : 1 канал
Расположение каналов : Front: C
Частота : 48,0 КГц
Битовая глубина : 16 бит
Метод сжатия : С потерями
Размер потока : 120 Мбайт (8%)
Выравнивание : Разделение по промежуткам
Продолжительность промежутка : 40 мс. (1,00 видеокадр)
Время предзагрузки промежутка : 500 мс.




vjub58
№2 Отправлено: 30.09.2018 - 17:41


Практикующий эсквайр

Группа: Аксакалы
Регистрация: 6.12.2005
Сообщений: 4845
Обитает:
На форуме с:
cегодня в 21:09




Спасибо, все ОК. pozdrav_buket.gif
Top
1 человек просматривает эту тему (1 гость)
« Предыдущая тема | Зарубежные фильмы | Следующая тема »


 



[Script Execution time: 0,0214]   [22 queries used]   [GZIP enabled]